Ссылка на приватное зеркало нашего сайта всего за 1$. Внимание количество ограничено!!!

2 сезон

iTunes

1 сезон

1

2 сезон

2 сезон

iTunes

1 сезон

RePack

30

Ultimate

ВАЖНО

ИГРА 18+

pack

RePack

MK11
pack

Забери бонус

RePack

jed

!!Акция!!

Alien_Rage

RePack

fifa19

RePack

Assassins Creed: Odyssey

RePack

NEED FOR SPEED™ PAYBACK

4 сезон

9 сезон

Бесстыжие 9 сезон

Все сериалы

все сериалы на PB.wtf

RePack

FAR CRY 5
  

Жаркое американское лето: Первый день лагеря / Wet Hot American Summer: First Day of Camp / Сезон: 1 / Серии: 1-8 из 8 (Дэвид Уэйн) [2015, комедия, WEBRip 1080p] MVO [NewStudio] pb.wtf

Жаркое американское лето: Первый день лагеря через торрент pb.wtf

Размер: 13.22 GB | Добавлен: 2 года 3 мес. назад | Торрент скачан:17 раз
Скачать  

01-08-2018 05:16 Жаркое американское лето: Первый день лагеря Скачать торрент  

Жаркое американское лето: Первый день лагеряWet Hot American Summer: First Day of Camp
Год выпуска: 2015
Страна: США
Жанр: комедия
Продолжительность: 00:27:00
Перевод: Профессиональный (многоголосый, закадровый) | NewStudio
Субтитры: нет

Режиссер: Дэвид Уэйн / David Wain

В ролях:
Джанин Гарофало (Beth), Джейсон Шварцман (Greg), Пол Радд (Andy), Маргерит Моро (Katie), Кристофер Мелони (Gene), Кен Марино (Victor Kulak), Джо Ло Трульо (Neil), Эми Полер (Susie), Брэдли Купер (Ben), Молли Шеннон (Gail von Kleinenstein), Майкл Йен Блэк (McKinley), Майкл Шоуолтер (Alan Shemper)

Описание:

Действие сериала разворачивается в 1981 году. Главные герои сериала - обитатели летнего лагеря, которым предстоит пережить самые непростые каникулы в их жизни...

rating

Релиз:

Перевод: Александра Цернант, Григорий Сенин, Ирина Гвозденко

Качество: WEBRip 1080p
Контейнер: MKV

Видео: H.264, 1920x1012 [2:1], 23.976 fps, 6 626 kbps, 0.142 bit/pixel
Аудио №1: 48 kHz, AC3 Dolby Digital, 3/2 (L,C,R,l,r) + LFE ch, ~384.00 kbps [NewStudio]
Аудио №2: 48 kHz, AC3 Dolby Digital, 3/2 (L,C,R,l,r) + LFE ch, ~640.00 kbps [Original]
скриншот   скриншот   скриншот   скриншот  
General
Unique ID : 227974373121724782657545564863090105161 (0xAB8244659164CB30B5D530391ACF9B49)
Complete name : F:\Wet.Hot.American.Summer.s01.1080p.WEB.NewStudio\Wet.Hot.American.Summer.s01e01.1080p.WEB.NewStudio.TV.mkv
Format : Matroska
Format version : Version 4 / Version 2
File size : 1.48 GiB
Duration : 27mn 13s
Overall bit rate : 7 806 Kbps
Encoded date : UTC 2015-08-01 20:15:17
Writing application : mkvmerge v8.2.0 ('World of Adventure') 32bit
Writing library : libebml v1.3.1 + libmatroska v1.4.2
DURATION : 00:00:12.080000000
NUMBER_OF_FRAMES : 4
NUMBER_OF_BYTES : 294
_STATISTICS_WRITING_APP : mkvmerge v8.2.0 ('World of Adventure') 32bit
_STATISTICS_WRITING_DATE_UT : 2015-08-01 20:15:17
_STATISTICS_TAGS : BPS DURATION NUMBER_OF_FRAMES NUMBER_OF_BYTES

Video
ID : 1
Format : AVC
Format/Info : Advanced Video Codec
Format profile : High@L4.1
Format settings, CABAC : Yes
Format settings, ReFrames : 4 frames
Codec ID : V_MPEG4/ISO/AVC
Duration : 27mn 13s
Bit rate : 6 626 Kbps
Width : 1 920 pixels
Height : 1 012 pixels
Display aspect ratio : 1.897
Frame rate mode : Constant
Frame rate : 23.976 fps
Color space : YUV
Chroma subsampling : 4:2:0
Bit depth : 8 bits
Scan type : Progressive
Bits/(Pixel*Frame) : 0.142
Stream size : 1.26 GiB (85%)
Writing library : x264 core 144 r2525 40bb568
Encoding settings : cabac=1 / ref=4 / deblock=1:-3:-3 / analyse=0x3:0x133 / me=umh / subme=10 / psy=1 / psy_rd=1.00:0.00 / mixed_ref=1 / me_range=48 / chroma_me=1 / trellis=2 / 8x8dct=1 / cqm=0 / deadzone=21,11 / fast_pskip=0 / chroma_qp_offset=-2 / threads=12 / lookahead_threads=2 / sliced_threads=0 / nr=0 / decimate=0 / interlaced=0 / bluray_compat=0 / constrained_intra=0 / bframes=8 / b_pyramid=2 / b_adapt=2 / b_bias=0 / direct=3 / weightb=1 / open_gop=0 / weightp=2 / keyint=250 / keyint_min=24 / scenecut=40 / intra_refresh=0 / rc=crf / mbtree=0 / crf=18.0 / qcomp=0.60 / qpmin=0 / qpmax=69 / qpstep=4 / ip_ratio=1.40 / pb_ratio=1.30 / aq=1:0.65
Language : English
Default : Yes
Forced : No
DURATION : 00:27:13.632000000
NUMBER_OF_FRAMES : 39168
NUMBER_OF_BYTES : 1385055839
_STATISTICS_WRITING_APP : mkvmerge v8.2.0 ('World of Adventure') 32bit
_STATISTICS_WRITING_DATE_UT : 2015-08-01 20:15:17
_STATISTICS_TAGS : BPS DURATION NUMBER_OF_FRAMES NUMBER_OF_BYTES

Audio #1
ID : 2
Format : AC-3
Format/Info : Audio Coding 3
Mode extension : CM (complete main)
Format settings, Endianness : Big
Codec ID : A_AC3
Duration : 27mn 13s
Bit rate mode : Constant
Bit rate : 384 Kbps
Channel(s) : 6 channels
Channel positions : Front: L C R, Side: L R, LFE
Sampling rate : 48.0 KHz
Bit depth : 16 bits
Compression mode : Lossy
Delay relative to video : 5s 69ms
Stream size : 74.8 MiB (5%)
Title : NewStudio.TV
Language : Russian
Default : Yes
Forced : No

Audio #2
ID : 3
Format : AC-3
Format/Info : Audio Coding 3
Mode extension : CM (complete main)
Format settings, Endianness : Big
Codec ID : A_AC3
Duration : 27mn 13s
Bit rate mode : Constant
Bit rate : 640 Kbps
Channel(s) : 6 channels
Channel positions : Front: L C R, Side: L R, LFE
Sampling rate : 48.0 KHz
Bit depth : 16 bits
Compression mode : Lossy
Stream size : 125 MiB (8%)
Language : English
Default : No
Forced : No

Text
ID : 4
Format : UTF-8
Codec ID : S_TEXT/UTF8
Codec ID/Info : UTF-8 Plain Text
Title : Forced
Language : Russian
Default : Yes
Forced : No
Внимание! Раздача ведётся путём добавления новых серий; при каждом добавлении создаётся новый торрент. Чтобы начать докачку новой серии, пользователям необходимо сделать следующее: (1) остановить скачивание, (2) удалить старый торрент у себя из клиента (старые серии удалять не надо), (3) скачать новый торрент и запустить его у себя в клиенте вместо старого, при этом указать клиенту путь в старую папку куда и должно происходить скачивание новых серий.
Ваш клиент при этом должен произвести хеширование (проверку) старой папки (если не производит сам - помогите ему сделать это), и будет докачивать только те серии которых у вас ещё нет. Старые серии при этом не удаляются, а продолжают раздаваться!
Eсли вы уже удалили старые серии, то предотвратить повторную закачку старых серий можно, отжав галочку в соответствующих местах при запуске нового торрента.
pb.wtf



Скачать Жаркое американское лето: Первый день лагеря через торрент http://pic1.kartinco.top/images/11/xaa11.jpg Скачать фильм Жаркое американское лето: Первый день лагеря через торрент бесплантно в хорошем качестве Описание: Действие сериала разворачивается в 1981 году. Главные герои сериала - обитатели летнего лагеря, которым предстоит пережить самые ... 10 10 2
Торрент: Зарегистрирован [2018-08-01 05:16] · скачан: 17 раз
Статус: √ проверено
Размер: 13.22 GB
Как cкачать? Как скачать Жаркое американское лето: Первый день лагеря через торрент | qTorrent

% Раздел Тема Автор DL S | L
Зарубежные сериалы [ 2.73 GB ] Жаркое американское лето: Первый день лагеря / Wet Hot American Summer: First Day of Camp/ Сезон: 1 / Серии 1-8 из 8 [2015 WEBRip] MVO [NewStudio] GEKADOL Скачать
1 | 0

28-11-2019 20:33  

Отключить всю рекламу на сайте

    Дорогой пользователь! Огромная просьба, поблагодарите релизера, оцените раздачу и оставьте свои комментарий, если Вы скачали Жаркое американское лето: Первый день лагеря через торрент бесплатно! Внесите свою лепту в развитие PiratBit!
    Комментировать посты могут только пользователи прошедшие не сложную регистрацию
    Показать сообщения:    

    Жаркое американское лето: Первый день лагеря через торрент
    Скачать бесплатно Жаркое американское лето: Первый день лагеря
    Жаркое американское лето: Первый день лагеря скачать торрент
    Жаркое американское лето: Первый день лагеря смотреть онлайн
    Cкачать фильм Жаркое американское лето: Первый день лагеря бесплатно
    Жаркое американское лето: Первый день лагеря скачать торрент в хорошем качестве
    Жаркое американское лето: Первый день лагеря смотреть онлайн бесплатно в хорошем качестве


    Вы не можете начинать темы
    Вы не можете отвечать на сообщения
    Вы не можете редактировать свои сообщения
    Вы не можете удалять свои сообщения
    Вы не можете голосовать в опросах
    Вы не можете прикреплять файлы к сообщениям
    Вы можете скачивать файлы