Anonymous, доброй ночи, присоединяйтесь к нам в Telegram!, здесь всегда актуальный адрес сайта, оперативная поддержка и многое другое!

>

5.6

iTunes

7.4

iTunes

5.7

MVO

1

7.7

1 сезон

6.8

iTunes

7.3

1 сезон

13

6.7

1 сезон

8.3

RePack

30

ULTIMATE

pack

9.9

Лицензия

ВАЖНО

ИГРА 18+

pack

7.3

RePack

MK11

7.7

RePack

jed

7.8

RePack

fifa19

8.5

RePack

RDR2

RePack

NEED FOR SPEED™ PAYBACK

4 сезон

9 сезон

Бесстыжие 9 сезон

Все сериалы

все сериалы на PB.wtf

RePack

FAR CRY 5

Anonymous, доброй ночи, мы катастрофически не успеваем собрать деньги на оплату серверов, помогите нам пожалуйста 5,10,15р., для нас важна любая помощь . В качестве благодарности мы отключим Вам всю рекламу на сайте (укажите свой ник в строку Ваше имя)!

×
  
Magnet ссылка

Друг мой, Колька!.. (Александр Митта, Алексей Салтыков) [1961, СССР, драма, DVDRip-AVC от AVP Studio] pb.wtf

Друг мой, Колька!.. через торрент pb.wtf

Размер: 1.09 GB | Добавлен: 3 года 2 мес. назад | Торрент скачан:16 раз
Смотреть онлайн Друг мой, Колька!.. | Скачать    Ребята, помогите собрать деньги на оплату серверов!!!

01-08-2018 06:31 Друг мой, Колька!.. Скачать торрент  

Друг мой, Колька!..
Страна: СССР
Производство: Мосфильм

Жанр: драма
Год выпуска: 1961
Продолжительность: 01:22:49

Перевод: Не требуется
Cубтитры: нет
Оригинальная аудиодорожка: русский

Режиссер: Александр Митта, Алексей Салтыков

В ролях:
Александр Кобозев, Анна Родионова, Алексей Борзунов, Виктор Онучак, Татьяна Кузнецова, Анатолий Кузнецов, Антонина Дмитриева, Виталий Ованесов, Савелий Крамаров, Борис Новиков, Людмила Чернышёва, Игорь Косухин...
Об актёрах подробней

Описание:
По одноименной пьесе А.Хмелика.
Кольке Снегиреву скучно в школе. Остальным ребятам тоже. Работа пионерской организации погрязла в однообразной рутине. Посмотреть хотя бы, как проходит сбор на тему: "Береги минутку". Брать пример можно только с Льва Толстого (много написал), круглой отличницы Маши Канарейкиной да Юлия Цезаря, пример с которым был признан старшей пионервожатой неудачным. Самой пионервожатой работа надоела, детей она не любит, вокруг нее крутятся только карьеристы и подлизы, будущие комсомольские работники.

Источник: DVD5 R5
Качество видео: DVDRip-AVC
Формат видео: MKV

Видео: 716->762х572 (4:3), 25 fps, H264 ~ 1432 kbps avg, 0.140 bit/pixel
Аудио: 48 kHz, Dolby Digital AC3 5.1, 448 kbps

Раздача от:
Общее
Полное имя : Drug.moy,Kolka!..1961.DVDRip-AVC_[New-team]_by_AVP_Studio.mkv
Формат : Matroska
Версия формата : Version 2
Размер файла : 1,09 Гбайт
Продолжительность : 1 ч. 22 м.
Общий поток : 1882 Кбит/сек
Дата кодирования : UTC 2018-07-29 23:07:02
Программа кодирования : mkvmerge v6.1.0 ('Old Devil') built on Mar 4 2013 09:10:42
Библиотека кодирования : libebml v1.3.0 + libmatroska v1.4.0

Видео
Идентификатор : 1
Формат : AVC
Формат/Информация : Advanced Video Codec
Профиль формата : High@L4.1
Настройки формата : CABAC / 10 Ref Frames
Параметр CABAC формата : Да
Параметр RefFrames формата : 10 кадров
Идентификатор кодека : V_MPEG4/ISO/AVC
Продолжительность : 1 ч. 22 м.
Битрейт : 1432 Кбит/сек
Ширина : 716 пикселей
Высота : 572 пикселя
Соотношение сторон : 4:3
Соотношение сторон в оригинале : 4:3
Режим частоты кадров : Постоянный
Частота кадров : 25,000 кадров/сек
Цветовое пространство : YUV
Субдискретизация насыщенности : 4:2:0
Битовая глубина : 8 бит
Тип развёртки : Прогрессивная
Бит/(Пиксели*Кадры) : 0.140
Размер потока : 827 Мбайт (74%)
Библиотека кодирования : x264 core 130 r2273 b3065e6
Настройки программы : cabac=1 / ref=10 / deblock=1:-2:-1 / analyse=0x3:0x113 / me=umh / subme=10 / psy=1 / psy_rd=1.00:0.00 / mixed_ref=1 / me_range=32 / chroma_me=1 / trellis=2 / 8x8dct=1 / cqm=0 / deadzone=21,11 / fast_pskip=1 / chroma_qp_offset=-2 / threads=6 / lookahead_threads=1 / sliced_threads=0 / nr=0 / decimate=0 / interlaced=0 / bluray_compat=0 / constrained_intra=0 / bframes=8 / b_pyramid=2 / b_adapt=2 / b_bias=0 / direct=3 / weightb=1 / open_gop=0 / weightp=2 / keyint=250 / keyint_min=25 / scenecut=40 / intra_refresh=0 / rc=2pass / mbtree=0 / bitrate=1432 / ratetol=1.0 / qcomp=0.60 / qpmin=0 / qpmax=69 / qpstep=4 / cplxblur=20.0 / qblur=0.5 / ip_ratio=1.40 / pb_ratio=1.30 / aq=1:1.00
Default : Да
Forced : Нет

Аудио
Идентификатор : 2
Формат : AC-3
Формат/Информация : Audio Coding 3
Идентификатор кодека : A_AC3
Продолжительность : 1 ч. 22 м.
Вид битрейта : Постоянный
Битрейт : 448 Кбит/сек
Каналы : 6 каналов
Расположение каналов : Front: L C R, Side: L R, LFE
Частота : 48,0 КГц
Частота кадров : 31,250 кадров/сек (1536 SPF)
Битовая глубина : 16 бит
Метод сжатия : С потерями
Задержка видео : 509 мс.
Размер потока : 265 Мбайт (24%)
Default : Да
Forced : Нет
pb.wtf



Скачать Друг мой, Колька!.. через торрент http://picplus.ru/img/1808/01/d9b3465b.png Скачать, смотреть онлайн Друг мой, Колька!.. бесплантно в хорошем качестве Описание:По одноименной пьесе А.Хмелика.Кольке Снегиреву скучно в школе. Остальным ребятам тоже. Работа пионерской организации погрязла в ... 9.5 10 2
Info! Золотая раздача, скачанное не засчитывается.
Торрент: Зарегистрирован [2018-08-01 06:31] · скачан: 16 раз
Статус: √ проверено
Размер: 1.09 GB
Как cкачать? Как скачать Друг мой, Колька!.. через торрент | UTorrent

% Раздел Тема Автор DL S | L
Кино СССР [ 1.09 GB ] Друг мой Колька!.. [1961 СССР DVDRip от AVP Studio] AVP Studio Скачать
1 | 0
Кино СССР [ 1.37 GB ] Друг мой Колька!.. [1961 киноповесть школьный DVDRip] sanekbest1 Скачать
1 | 0

28-11-2019 20:33  

Отключить всю рекламу на сайте

    Дорогой пользователь! Огромная просьба, поблагодарите релизера, оцените раздачу и оставьте свои комментарий, если Вы скачали Друг мой, Колька!.. через торрент бесплатно!
    Комментировать посты могут только пользователи прошедшие не сложную регистрацию
    Показать сообщения:    

    Друг мой, Колька!.. через торрент
    Скачать бесплатно Друг мой, Колька!..
    Друг мой, Колька!.. скачать торрент
    Друг мой, Колька!.. смотреть онлайн
    Cкачать фильм Друг мой, Колька!.. бесплатно
    Друг мой, Колька!.. скачать торрент в хорошем качестве
    Друг мой, Колька!.. смотреть онлайн бесплатно в хорошем качестве


    Вы не можете начинать темы
    Вы не можете отвечать на сообщения
    Вы не можете редактировать свои сообщения
    Вы не можете удалять свои сообщения
    Вы не можете голосовать в опросах
    Вы не можете прикреплять файлы к сообщениям
    Вы можете скачивать файлы