Ссылка на приватное зеркало всего за 1$. Внимание количество ограничено!!!

OK

1+1

iTunes

мы

OK

1

WEB-DLRip

Джокер

Пифагор

Ведьмак / The Witcher сериал

Лицензия

ПШазам

ОК

Оно 2

iTunes

30
pack

Вам бонус

ВАЖНО

!!Акция!!

Alien_RageХит недели

RePack

Resident Evil 21

ИГРА 18+

pack

RePack

jed

RePack

fifa19

RePack

Assassins Creed: Odyssey

RePack

NEED FOR SPEED™ PAYBACK

4 сезон

9 сезон

Бесстыжие 9 сезон

Все сериалы

все сериалы на PB.wtf

RePack

FAR CRY 5
  

Попробуй подкати / Tout le monde debout (Франк Дюбоск) [2018, Мелодрама, комедия, WEB-DL 1080p] DUB [iTunes] pb.wtf

Попробуй подкати через торрент pb.wtf

Размер: 3.72 GB | Добавлен: 1 год 5 мес. назад | Торрент скачан:429 раз
Скачать  

02-08-2018 03:09 Попробуй подкати Скачать торрент  

Попробуй подкати / Tout le monde debout
Год выпуска: 2018
Страна: Франция, Бельгия
Жанр: Мелодрама, комедия
Продолжительность: 01:47:52
Перевод: Дублированный | iTunes
Субтитры: отсутствуют

Режиссер: Франк Дюбоск

rating

В ролях:

Франк Дюбоск, Александра Лами, Эльза Зильберштейн, Жерар Дармон, Каролин Англад, Лоран Бато, Клод Брассёр, Франсуа-Ксавье Демезон, Летиция Белличчини, Кристоф Канар

Описание:

Успешный бизнесмен и эгоистичный мачо пускает в ход все свои уловки, чтобы соблазнять девушек. Но однажды он сам оказывается в крайне щекотливой ситуации.

Качество: WEB-DL 1080p
Формат: MKV

Видео: 1908x792 (2,40:1), 23,976 fps, MPEG-4 AVC ~ 4452 Kbps avg, 0.123 bit/pixel
Аудио: AC3, 48 kHz, 6 ch, ~384.00 kbps avg | русский | iTunes
скриншот  скриншот  скриншот  скриншот  скриншот  

Общее
Уникальный идентификатор : 197430928751881227749551184806406017388 (0x9487D052C8064710912009760FE0516C)
Полное имя : PODKATI_2018_WEB_DL_1080p-BLUEBIRD.mkv
Формат : Matroska
Версия формата : Version 4 / Version 2
Размер файла : 3,72 Гбайт
Продолжительность : 1 ч. 47 м.
Общий поток : 4935 Кбит/сек
Название фильма : PODKATI_2018_WEB_DL_1080p-BLUEBIRD
Дата кодирования : UTC 2018-08-01 18:25:21
Программа кодирования : mkvmerge v6.9.1 ('Blue Panther') 32bit built on Apr 18 2014 18:15:44
Библиотека кодирования : libebml v1.3.0 + libmatroska v1.4.1

Видео
Идентификатор : 1
Формат : AVC
Формат/Информация : Advanced Video Codec
Профиль формата : High@L4
Настройки формата : CABAC / 5 Ref Frames
Параметр CABAC формата : Да
Параметр RefFrames формата : 5 кадров
Идентификатор кодека : V_MPEG4/ISO/AVC
Продолжительность : 1 ч. 47 м.
Битрейт : 4452 Кбит/сек
Ширина : 1908 пикселей
Высота : 792 пикселя
Соотношение сторон : 2,40:1
Режим частоты кадров : Постоянный
Частота кадров : 23,976 (24000/1001) кадра/сек
Цветовое пространство : YUV
Субдискретизация насыщенности : 4:2:0
Битовая глубина : 8 бит
Тип развёртки : Прогрессивная
Бит/(Пиксели*Кадры) : 0.123
Размер потока : 3,35 Гбайт (90%)
Заголовок : PODKATI_2018_WEB_DL_1080p-BLUEBIRD
Язык : English
Default : Да
Forced : Нет
Цветовой диапазон : Limited
Основные цвета : BT.709
Характеристики трансфера : BT.709
Коэффициенты матрицы : BT.709

Аудио
Идентификатор : 2
Формат : AC-3
Формат/Информация : Audio Coding 3
Идентификатор кодека : A_AC3
Продолжительность : 1 ч. 47 м.
Вид битрейта : Постоянный
Битрейт : 384 Кбит/сек
Каналы : 6 каналов
Расположение каналов : Front: L C R, Side: L R, LFE
Частота : 48,0 КГц
Частота кадров : 31,250 кадров/сек (1536 SPF)
Битовая глубина : 16 бит
Метод сжатия : С потерями
Размер потока : 296 Мбайт (8%)
Заголовок : [DUB] DD 5.1 @ 384 kbps (iTunes)
Язык : Russian
Default : Да
Forced : Нет

Меню
00:00:00.000 : en:1
00:10:08.000 : en:2
00:20:12.000 : en:3
00:32:57.000 : en:4
00:42:12.000 : en:5
00:49:04.000 : en:6
00:59:11.000 : en:7
01:04:55.000 : en:8
01:13:31.000 : en:9
01:23:05.000 : en:10
01:36:27.000 : en:11
01:41:46.000 : en:12

pb.wtf



Скачать Попробуй подкати через торрент http://i99.fastpic.ru/big/2018/0802/f8/d6fac966f139100a3d68ee20aeefe5f8.jpg Скачать фильм Попробуй подкати через торрент бесплантно в хорошем качестве Описание: Успешный бизнесмен и эгоистичный мачо пускает в ход все свои уловки, чтобы соблазнять девушек. Но однажды он сам оказывается в ... 10 10 15
Info! Золотая раздача, скачанное не засчитывается.
Торрент: Зарегистрирован [2018-08-02 03:09] · скачан: 429 раз
Статус: √ проверено
Размер: 3.72 GB
Как cкачать? Как скачать Попробуй подкати через торрент | qTorrent

% Раздел Тема Автор DL S | L
Фильмы 2018 [DVDrip, WEB-DLRip, HDrip] (DUB, MVO) [ 1.41 GB ] Попробуй подкати / Tout le monde debout [2018 BDRip] - Twi7ter Скачать
3 | 0
T Фильмы [HD 720p, 1080p] (Хороший звук DUB, MVO) [ 8.23 GB ] Попробуй подкати / Tout le monde debout [2018 BDRip 1080p] -Lexx- Скачать
3 | 0
Фильмы 2018 [DVDrip, WEB-DLRip, HDrip] (DUB, MVO) [ 2.05 GB ] Попробуй подкати / Tout le monde debout [2018 Мело HDRip] bober100 Скачать
1 | 0
Фильмы 2018 [DVDrip, WEB-DLRip, HDrip] (DUB, MVO) [ 1.62 GB ] Попробуй подкати / Tout le monde debout [2018 Мело HDRip-AVC] bober100 Скачать
1 | 0
Фильмы 2018 [DVDrip, WEB-DLRip, HDrip] (DUB, MVO) [ 715 MB ] Попробуй подкати / Tout le monde debout [2018 WEB-DLRip ""] coc900 Скачать
1 | 0
Фильмы (Blu-ray, BD-Remux, HDDVD) [ 27.03 GB ] Попробуй подкати / Tout le monde debout [2018 Мело BD Remux 1080p] bober100 Скачать
1 | 0
Фильмы 2018 [DVDrip, WEB-DLRip, HDrip] (DUB, MVO) [ 1.37 GB ] Попробуй подкати / Tout le monde debout [2018 Мело HDRip] bober100 Скачать
1 | 0

28-11-2019 20:33  

Отключить всю рекламу на сайте

    Дорогой пользователь! Огромная просьба, поблагодарите релизера, оцените раздачу и оставьте свои комментарий, если Вы скачали Попробуй подкати через торрент бесплатно! Внесите свою лепту в развитие PiratBit!
    Комментировать посты могут только пользователи прошедшие не сложную регистрацию
    Показать сообщения:    

    Попробуй подкати через торрент
    Скачать бесплатно Попробуй подкати
    Попробуй подкати скачать торрент
    Попробуй подкати смотреть онлайн
    Cкачать фильм Попробуй подкати бесплатно
    Попробуй подкати скачать торрент в хорошем качестве
    Попробуй подкати смотреть онлайн бесплатно в хорошем качестве


    Вы не можете начинать темы
    Вы не можете отвечать на сообщения
    Вы не можете редактировать свои сообщения
    Вы не можете удалять свои сообщения
    Вы не можете голосовать в опросах
    Вы не можете прикреплять файлы к сообщениям
    Вы можете скачивать файлы