2 сезон

iTunes

MVO

1

2 сезон

iTunes

iTunes

1 сезон

RePack

30

Новинка

ВАЖНО

ИГРА 18+

pack

RePack

MK11
pack

Легкие деньги

RePack

jed

RePack

fifa19

RePack

RDR2

RePack

NEED FOR SPEED™ PAYBACK

4 сезон

9 сезон

Бесстыжие 9 сезон

Все сериалы

все сериалы на PB.wtf

RePack

FAR CRY 5

Anonymous, добрый день, мы не успеваем собрать деньги на оплату серверов за декабрь и январь, помогите нам пожалуйста в это трудное время. В качестве благодарности мы отключим Вам всю рекламу на сайте (укажите свой ник в строку Ваше имя)!

×
  
Magnet ссылка

Робопёс: Авиационный / Robo-Dog: Airborne (Энтони Стивен Джордано) [2017, семейный, приключения, WEBRip] MVO [Синема УС] pb.wtf

Робопёс: Авиационный через торрент pb.wtf

Размер: 1.43 GB | Добавлен: 2 года 5 мес. назад | Торрент скачан:57 раз
Скачать  

02-08-2018 03:25 Робопёс: Авиационный Скачать торрент  

Робопёс: Авиационный / Robo-Dog: Airborne
Год выпуска: 2017
Страна: США
Жанр: семейный, приключения
Продолжительность: 01:28:25
Перевод: Любительский (многоголосый) | Синема УС
Субтитры: отсутствуют

Режиссер: Энтони Стивен Джордано

rating

В ролях:

Майкл Кэмпион, Патрик Малдун, Кенни Бомонт, Джонатан Силвермен, Джеймс Арнольд Тейлор, Бруклин Принс, Бонни Миллер

Описание:

После случайного взрыва на научной ярмарке Робопёс теряет память. Одинокого пса забирает к себе новая семья, а Тайлер и Барри прочёсывают город в поисках пропавшего лучшего друга...

Качество: WEBRip
Формат: AVI

Видео: 720x384 (1.85:1), 23.976 fps, XviD build 64 ~2 144 kbps avg
Аудио: 44.1 kHz, MPEG Layer 3, 2 ch, ~160 kbps
скриншот  скриншот  скриншот  

General
Полное имя : Робопёс авиационный 2017г.avi
Формат : AVI
Формат/Информация : Audio Video Interleave
Размер файла : 1,43 Гбайт
Продолжительность : 1 ч. 28 м.
Общий поток : 2313 Кбит/сек

Видео
Идентификатор : 0
Формат : MPEG-4 Visual
Профиль формата : Simple@L3
Параметр BVOP формата : Нет
Параметр QPel формата : Нет
Параметр GMC формата : Без точки перехода
Параметр матрицы формата : Default (H.263)
Идентификатор кодека : XVID
Идентификатор кодека/Подсказка : XviD
Продолжительность : 1 ч. 28 м.
Битрейт : 2144 Кбит/сек
Ширина : 720 пикселей
Высота : 384 пикселя
Соотношение сторон : 1,85:1
Частота кадров : 23,976 кадра/сек
Цветовое пространство : YUV
Субдискретизация насыщенности : 4:2:0
Битовая глубина : 8 бит
Тип развёртки : Прогрессивная
Метод сжатия : С потерями
Бит/(Пиксели*Кадры) : 0.323
Размер потока : 1,32 Гбайт (93%)
Библиотека кодирования : XviD 64

Аудио
Идентификатор : 1
Формат : MPEG Audio
Версия формата : Version 1
Профиль формата : Layer 3
Идентификатор кодека : 55
Идентификатор кодека/Подсказка : MP3
Продолжительность : 1 ч. 28 м.
Продолжительность оригинала : 1 ч. 28 м.
Вид битрейта : Постоянный
Битрейт : 160 Кбит/сек
Каналы : 2 канала
Частота : 44,1 КГц
Метод сжатия : С потерями
Размер потока : 101 Мбайт (7%)
Выравнивание : Соединение по промежуткам
Продолжительность промежутка : 42 мс. (1,00 видеокадр)

pb.wtf



Скачать Робопёс: Авиационный через торрент http://img11.lostpic.net/2018/08/02/7897ed879c3e2d3c6bb55f0911e14142.jpg Скачать фильм Робопёс: Авиационный через торрент бесплантно в хорошем качестве Описание: После случайного взрыва на научной ярмарке Робопёс теряет память. Одинокого пса забирает к себе новая семья, а Тайлер и Барри ... 10 10 3
Торрент: Зарегистрирован [2018-08-02 03:25] · скачан: 57 раз
Статус: T временная
Размер: 1.43 GB
Как cкачать? Как скачать Робопёс: Авиационный через торрент | UTorrent

28-11-2019 20:33  

Отключить всю рекламу на сайте

    Дорогой пользователь! Огромная просьба, поблагодарите релизера, оцените раздачу и оставьте свои комментарий, если Вы скачали Робопёс: Авиационный через торрент бесплатно! Внесите свою лепту в развитие PiratBit!
    Комментировать посты могут только пользователи прошедшие не сложную регистрацию
    Показать сообщения:    

    Робопёс: Авиационный через торрент
    Скачать бесплатно Робопёс: Авиационный
    Робопёс: Авиационный скачать торрент
    Робопёс: Авиационный смотреть онлайн
    Cкачать фильм Робопёс: Авиационный бесплатно
    Робопёс: Авиационный скачать торрент в хорошем качестве
    Робопёс: Авиационный смотреть онлайн бесплатно в хорошем качестве


    Вы не можете начинать темы
    Вы не можете отвечать на сообщения
    Вы не можете редактировать свои сообщения
    Вы не можете удалять свои сообщения
    Вы не можете голосовать в опросах
    Вы не можете прикреплять файлы к сообщениям
    Вы можете скачивать файлы