Ссылка на приватное зеркало всего за 1$. Внимание количество ограничено!!!

OK

1+1

iTunes

мы

OK

1

WEB-DLRip

Джокер

Пифагор

Ведьмак / The Witcher сериал

iTunes

ПШазам

ОК

Оно 2

iTunes

30
pack

Вам бонус

ВАЖНО

!!Акция!!

Alien_RageХит недели

RePack

Resident Evil 21

ИГРА 18+

pack

RePack

jed

RePack

fifa19

RePack

Assassins Creed: Odyssey

RePack

NEED FOR SPEED™ PAYBACK

4 сезон

9 сезон

Бесстыжие 9 сезон

Все сериалы

все сериалы на PB.wtf

RePack

FAR CRY 5
  

Инопланетная Осада / Alien Siege (Роб Паллатина) [2018 г., Фантастика, WEB-DLRip, Любительский (многоголосый)] [Синема УС] pb.wtf

Инопланетная Осада через торрент pb.wtf

Размер: 1.37 GB | Добавлен: 1 год 5 мес. назад | Торрент скачан:152 раза
Скачать  

02-08-2018 04:30 Инопланетная Осада Скачать торрент  

Инопланетная Осада / Alien Siege
Год выпуска: 2018
Страна: США
Жанр: Фантастика
Продолжительность: 01:29:16
Перевод: Любительский (многоголосый) | Синема УС
Субтитры: Отсутствуют

Режиссер: Роб Паллатина

rating

В ролях: Michael Love, Sanford Worth, Christina Licciardi, Ариэль Хадер, Мэттью Полкамп, Betsy McKinley, Michael Hardman, Ryan Patrick Shanahan, Brandon Johnston, Терри Вудберри

Описание: В Вашингтоне, округ Колумбия, появляется космический корабль, который разрушает город. После произошла высадка инопланетян, которые охотятся за президентом Соединенных Штатов Америки. В попытке защитить своего лидера и свою страну группа жителей из Коннектикута объединила свои силы для борьбы с инопланетными силами.

Качество: WEB-DLRip
Формат: AVI
Видео кодек: XviD
Аудио кодек: AC3
Видео: XviD, 720x400 , 23.9fps, 1799 Kbps
Аудио#1: AC3 , 2 ch , 48 kHz , 384 kbps
скриншот   скриншот   скриншот   скриншот  

Общее
Полное имя : D:Alien.Siege.2018.P.WEB-DLRip.14OOMB.avi
Формат : AVI
Формат/Информация : Audio Video Interleave
Размер файла : 1,37 Гбайт
Продолжительность : 1 ч. 29 м.
Общий поток : 2193 Кбит/сек
Программа кодирования : VirtualDubMod 1.5.10.2 (build 2540/release)
Библиотека кодирования : VirtualDubMod build 2540/release

Видео
Идентификатор : 0
Формат : MPEG-4 Visual
Профиль формата : Advanced Simple@L5
Параметр BVOP формата : 2
Параметр QPel формата : Нет
Параметр GMC формата : Без точки перехода
Параметр матрицы формата : Выборочная
Идентификатор кодека : XVID
Идентификатор кодека/Подсказка : XviD
Продолжительность : 1 ч. 29 м.
Битрейт : 1799 Кбит/сек
Ширина : 720 пикселей
Высота : 400 пикселей
Соотношение сторон : 16:9
Частота кадров : 23,976 кадра/сек
Цветовое пространство : YUV
Субдискретизация насыщенности : 4:2:0
Битовая глубина : 8 бит
Тип развёртки : Прогрессивная
Метод сжатия : С потерями
Бит/(Пиксели*Кадры) : 0.261
Размер потока : 1,12 Гбайт (82%)
Библиотека кодирования : XviD 1.2.1 (UTC 2008-12-04)

Аудио
Идентификатор : 1
Формат : AC-3
Формат/Информация : Audio Coding 3
Расширение режима : CM (complete main)
Параметр Endianness формата : Big
Идентификатор кодека : 2000
Продолжительность : 1 ч. 29 м.
Вид битрейта : Постоянный
Битрейт : 384 Кбит/сек
Каналы : 2 канала
Расположение каналов : Front: L R
Частота : 48,0 КГц
Битовая глубина : 16 бит
Метод сжатия : С потерями
Размер потока : 245 Мбайт (18%)
Выравнивание : Разделение по промежуткам
Продолжительность промежутка : 42 мс. (1,00 видеокадр)
Время предзагрузки промежутка : 500 мс.

pb.wtf



Скачать Инопланетная Осада через торрент http://pic1.kartinco.top/images/11/d1t3t.jpg Скачать фильм Инопланетная Осада через торрент бесплантно в хорошем качестве Описание: В Вашингтоне, округ Колумбия, появляется космический корабль, который разрушает город. После произошла высадка инопланетян, ... 7 10 9
Торрент: Зарегистрирован [2018-08-02 04:30] · скачан: 152 раз
Статус: T временная
Размер: 1.37 GB
Как cкачать? Как скачать Инопланетная Осада через торрент | qTorrent

28-11-2019 20:33  

Отключить всю рекламу на сайте

02-08-2018 06:47 Инопланетная Осада Скачать торрент  

Пришельцы прилетели что бы охотится за каким- то там занюханным президентом?pb.wtf



02-08-2018 09:01 Инопланетная Осада Скачать торрент  

Чёт зачастили пришельцы на америку нападать...pb.wtf



02-08-2018 09:09 Инопланетная Осада Скачать торрент  

GAS писал(а):

Чёт зачастили пришельцы на америку нападать...

На самом деле это переодетые русские с их последними технологиями. Хотят у бедных американцев пару-тройку штатов отжать,ну и президента заодно грохнуть. pb.wtf



02-08-2018 09:39 Инопланетная Осада Скачать торрент  

HASHEESH писал(а):

GAS писал(а):

Чёт зачастили пришельцы на америку нападать...

На самом деле это переодетые русские с их последними технологиями. Хотят у бедных американцев пару-тройку штатов отжать,ну и президента заодно грохнуть.

Героический американский народ не позволит этого. pb.wtf



02-08-2018 11:36 Инопланетная Осада Скачать торрент  

У америкосов как не срачка то болячкаpb.wtf



03-08-2018 04:25 Инопланетная Осада Скачать торрент  

больше всего доставляет, охотятся за президентом сша. pb.wtf



03-08-2018 15:50 Инопланетная Осада Скачать торрент  

Видимом хотят сами проверить эту рыжую особь на вменяемость. :))pb.wtf



08-10-2018 12:40 Инопланетная Осада Скачать торрент  

Сценарий по пьяне написан по ходу, такой отстой с такими "эффектами" раньше по тв3 вечером показывали, наверно школьники его снимали на сэлфи палку.pb.wtf



08-10-2018 18:14 Инопланетная Осада Скачать торрент  

Опять Асилум...pb.wtf



    Дорогой пользователь! Огромная просьба, поблагодарите релизера, оцените раздачу и оставьте свои комментарий, если Вы скачали Инопланетная Осада через торрент бесплатно! Внесите свою лепту в развитие PiratBit!
    Комментировать посты могут только пользователи прошедшие не сложную регистрацию
    Показать сообщения:    

    Инопланетная Осада через торрент
    Скачать бесплатно Инопланетная Осада
    Инопланетная Осада скачать торрент
    Инопланетная Осада смотреть онлайн
    Cкачать фильм Инопланетная Осада бесплатно
    Инопланетная Осада скачать торрент в хорошем качестве
    Инопланетная Осада смотреть онлайн бесплатно в хорошем качестве


    Вы не можете начинать темы
    Вы не можете отвечать на сообщения
    Вы не можете редактировать свои сообщения
    Вы не можете удалять свои сообщения
    Вы не можете голосовать в опросах
    Вы не можете прикреплять файлы к сообщениям
    Вы можете скачивать файлы