Ссылка на приватное зеркало нашего сайта всего за 1$. Внимание количество ограничено!!!

2 сезон

iTunes

1 сезон

1

2 сезон

2 сезон

iTunes

1 сезон

RePack

30

Ultimate

ВАЖНО

ИГРА 18+

pack

RePack

MK11
pack

Забери бонус

RePack

jed

!!Акция!!

Alien_Rage

RePack

fifa19

RePack

Assassins Creed: Odyssey

RePack

NEED FOR SPEED™ PAYBACK

4 сезон

9 сезон

Бесстыжие 9 сезон

Все сериалы

все сериалы на PB.wtf

RePack

FAR CRY 5
  

Скрытое / Hidden / Сезон: 1 / Серии: 1-8 из 8 (Эрик Стайлз, Крис Форстер, Гарет Брин) [2018, драма, криминал, HDTV 1080p] MVO [NewStudio] pb.wtf

Скрытое через торрент pb.wtf

Размер: 8.95 GB | Добавлен: 2 года 3 мес. назад | Торрент скачан:21 раз
Скачать  

02-08-2018 08:18 Скрытое Скачать торрент  

Скрытое / Hidden

Страна: Великобритания
Жанр: драма, криминал
Год выпуска: 2018
Продолжительность: ~ 00:58:00
Перевод: Профессиональный (многоголосый закадровый) |
Субтитры: Русские

Режиссер: Эрик Стайлз, Крис Форстер, Гарет Брин

В ролях:

Ниа Робертс, Джиллиан Элиза, Родри Мейлир, Йен Сейнор, Гвинет Киворт, Виктория Паг, Сара Темпест, Иоан Хефин, Шан Риз-Уильямс, Родри Сион, Лори Иззард и др.

Описание:

Когда в озере находят тело молодой женщины, детектив Кади Джон принимается за расследование. Героиня должна раскрыть страшную тайну, скрывающуюся за смертью погибшей, и постараться не допустить ещё большей трагедии.

rating Сэмпл

Качество: HDTV 1080p
Формат: MKV

Видео: 2 300 kb/s, 1920x1080
Аудио#1: Русский : AC3, 224 kb/s
Аудио#2: Английский : AC3, 224 kb/s
скриншот   скриншот   скриншот  

Общее
Уникальный идентификатор : 226130699212093793793182318611443068171 (0xAA1F30414268326B8C5BE0D42665AD0B)
Полное имя : D:\Torrentin\@ Hidden.s01.HDTV.1080p.NewStudio.TV\Hidden.s01e01.HDTV.1080p.NewStudio.TV.mkv
Формат : Matroska
Версия формата : Version 4 / Version 2
Размер файла : 1,09 Гбайт
Продолжительность : 57 м. 16 с.
Общий поток : 2724 Кбит/сек
Дата кодирования : UTC 2018-07-17 19:20:30
Программа кодирования : mkvmerge v9.8.0 ('Kuglblids') 64bit
Библиотека кодирования : libebml v1.3.4 + libmatroska v1.4.5

Видео
Идентификатор : 1
Формат : AVC
Формат/Информация : Advanced Video Codec
Профиль формата : High@L4
Настройки формата : CABAC / 4 Ref Frames
Параметр CABAC формата : Да
Параметр RefFrames формата : 4 кадра
Идентификатор кодека : V_MPEG4/ISO/AVC
Продолжительность : 57 м. 16 с.
Битрейт : 2306 Кбит/сек
Ширина : 1920 пикселей
Высота : 1080 пикселей
Соотношение сторон : 16:9
Режим частоты кадров : Переменный
Частота кадров : 25,384 кадров/сек
Частота кадров в оригинале : 25,000 кадров/сек
Стандарт вещания : Component
Цветовое пространство : YUV
Субдискретизация насыщенности : 4:2:0
Битовая глубина : 8 бит
Тип развёртки : MBAFF
Метод сохранения типа развёртки : Чередующиеся поля
Порядок развёртки : Верхнее поле первое
Бит/(Пиксели*Кадры) : 0.044
Размер потока : 945 Мбайт (85%)
Default : Да
Forced : Нет
Цветовой диапазон : Limited
Основные цвета : BT.709
Характеристики трансфера : BT.709
Коэффициенты матрицы : BT.709

Аудио #1
Идентификатор : 2
Формат : AC-3
Формат/Информация : Audio Coding 3
Идентификатор кодека : A_AC3
Продолжительность : 57 м. 16 с.
Вид битрейта : Постоянный
Битрейт : 224 Кбит/сек
Каналы : 2 канала
Расположение каналов : Front: L R
Частота : 48,0 КГц
Частота кадров : 31,250 кадров/сек (1536 SPF)
Битовая глубина : 16 бит
Метод сжатия : С потерями
Размер потока : 91,8 Мбайт (8%)
Заголовок : NewStudio.TV
Язык : Russian
ServiceKind/String : Complete Main
Default : Да
Forced : Нет

Аудио #2
Идентификатор : 3
Формат : AC-3
Формат/Информация : Audio Coding 3
Идентификатор кодека : A_AC3
Продолжительность : 57 м. 16 с.
Вид битрейта : Постоянный
Битрейт : 192 Кбит/сек
Каналы : 2 канала
Расположение каналов : Front: L R
Частота : 48,0 КГц
Частота кадров : 31,250 кадров/сек (1536 SPF)
Битовая глубина : 16 бит
Метод сжатия : С потерями
Размер потока : 78,7 Мбайт (7%)
Язык : English
ServiceKind/String : Complete Main
Default : Нет
Forced : Нет

Текст
Идентификатор : 4
Формат : ASS
Идентификатор кодека : S_TEXT/ASS
Идентификатор кодека/Информация : Advanced Sub Station Alpha
Продолжительность : 54 м. 1 с.
Битрейт : 0 бит/сек
ElementCount : 2
Метод сжатия : Без потерь
Размер потока : 202 байт (0%)
Язык : Russian
Default : Да
Forced : Да

pb.wtf



Скачать Скрытое через торрент http://i104.fastpic.ru/big/2018/0717/68/ad073823dcedf1ce70b8dd4ee9f6df68.png Скачать фильм Скрытое через торрент бесплантно в хорошем качестве Описание: Когда в озере находят тело молодой женщины, детектив Кади Джон принимается за расследование. Героиня должна раскрыть страшную ... 10 10 2
Торрент: Зарегистрирован [2018-08-02 08:18] · скачан: 21 раз
Статус: √ проверено
Размер: 8.95 GB
Как cкачать? Как скачать Скрытое через торрент | qTorrent

% Раздел Тема Автор DL S | L
Зарубежные сериалы [ 13.78 GB ] Скрытые: Первородный / Hidden: Förstfödd / Сезон: 1 / Серии: 1-8 из 8 [2019 WEB-DL 1080p] [MVO] killermax2013 Скачать
1 | 0
Зарубежные сериалы [ 7.61 GB ] Скрытые: Первородный / Hidden: Förstfödd / Сезон: 1 / Серии: 1-8 из 8 [2019 WEB-DL 720p] [MVO] killermax2013 Скачать
1 | 0
Зарубежные сериалы [ 6.82 GB ] Скрытое / Hidden / Сезон: 1 / Серии: 1-8 из 8 [2018 HDTVRip] MVO [NewStudio] bober100 Скачать
1 | 0

28-11-2019 20:33  

Отключить всю рекламу на сайте

    Дорогой пользователь! Огромная просьба, поблагодарите релизера, оцените раздачу и оставьте свои комментарий, если Вы скачали Скрытое через торрент бесплатно! Внесите свою лепту в развитие PiratBit!
    Комментировать посты могут только пользователи прошедшие не сложную регистрацию
    Показать сообщения:    

    Скрытое через торрент
    Скачать бесплатно Скрытое
    Скрытое скачать торрент
    Скрытое смотреть онлайн
    Cкачать фильм Скрытое бесплатно
    Скрытое скачать торрент в хорошем качестве
    Скрытое смотреть онлайн бесплатно в хорошем качестве


    Вы не можете начинать темы
    Вы не можете отвечать на сообщения
    Вы не можете редактировать свои сообщения
    Вы не можете удалять свои сообщения
    Вы не можете голосовать в опросах
    Вы не можете прикреплять файлы к сообщениям
    Вы можете скачивать файлы