Всегда рабочее зеркало без VPN и Proxy просто перед .vidak.icu напиши любое слово или цифру, Пример http://fcss.vidak.icu

MVO

2 сезон

2 сезон

1

1 сезон

iTunes

2 сезон

13

1 сезон

Распродажа

pack

Рекомендуем

Пиратка

30

ВАЖНО

RePack

MK11

RePack

jed

RePack

fifa19

RePack

RDR2

RePack

NEED FOR SPEED™ PAYBACK

Кинопоиск HD

6 сезон

 Острые козырьки 6 сезон

Все сериалы

все сериалы на PB.wtf

RePack

FAR CRY 5

Anonymous, нам критически не хватает 5601 руб. на оплату серверов и переферии за Апрель, помоги нам пожалуйста, вся надежда только на тебя. В благодарность мы отключим тебе всю рекламу на сайте!

×
  
Magnet ссылка

Правила съема: Метод Хитча / Hitch (Энди Теннант) [2005 г., мелодрама, комедия, WEBRip 1080p] [Open Matte] Dub + DVO + 2х AVO + Original pb.wtf

Правила съема: Метод Хитча через торрент pb.wtf

Размер: 5.82 GB | Добавлен: 3 года 9 мес. назад | Торрент скачан:94 раза
Смотреть онлайн Правила съема: Метод Хитча | Скачать    Ребята, помогите собрать деньги на оплату серверов!!!

02-08-2018 08:30 Правила съема: Метод Хитча Скачать торрент  

Информация о фильме

Название: Правила съема: Метод Хитча

Оригинальное название: Hitch

Год выпуска: 2005

Жанр: мелодрама, комедия

Режиссер: Энди Теннант

В ролях: Уилл Смит (Hitch), Ева Мендес (Sara), Кевин Джеймс (Albert), Эмбер Валлетта (Allegra), Джули Энн Эмери (Casey), Адам Аркин (Max), Робин Ли (Cressida), Нэйтан Ли Грэхэм (Geoff), Майкл Рапапорт (Ben), Джеффри Донован (Vance), Пола Пэттон (Mandy), Филип Боско (Mr. O'Brian)



О фильме: Алекс «Хитч» Хитченс — легендарный нью-йоркский «доктор-сват». Множеству мужчин он помог добиться взаимности от женщин их мечты. Хитч не бескорыстен, он получает за свою работу гонорар, но предусмотрительно хранит в тайне свой способ зарабатывать на жизнь.

Новый клиент Хитча — Альберт, робкий бухгалтер, без ума влюблённый в гламурную звезду Аллегру Коул. Для Хитча этот случай должен стать вершиной его карьеры. Однако, работая над этим делом, он вдруг встречает достойного противника в лице эффектной и проницательной Сары Мелас, журналистки, ведущей колонку светских сплетен, и следящей за каждым шагом Аллегры.

Профессиональный холостяк Хитч внезапно обнаруживает, что по уши влюблён в Сару, которая, в свою очередь, близка к сенсационному открытию: она только что вышла на след таинственного манхэттенского «доктора-свата»…



rating



MPAA: PG-13 - Детям до 13 лет просмотр не желателен



Страна: США

Студия: Columbia Pictures Corporation, Overbrook Entertainment

Продолжительность: 01:58:15

Перевод: Профессиональный (дублированный), Профессиональный (двухголосый, закадровый), Авторский (одноголосый, закадровый)



Файл

Качество: WEBRip 1080p | Open Matte

Формат: Matroska

Видео: 1912x1080 at 23.976 fps, x264, ~4000 kbps avg

Аудио#1: Russian: 48 kHz, AC3, 3/2 (L,C,R,l,r) + LFE ch, ~448 kbps avg |Дубляж, Невафильм|

Аудио#2: Russian: 48 kHz, AC3, 3/2 (L,C,R,l,r) + LFE ch, ~448 kbps avg |Двухголосый закадровый, Tycoon-Studio|

Аудио#3: Russian: 48 kHz, AC3, 3/2 (L,C,R,l,r) + LFE ch, ~448 kbps avg |Авторский, А.Карповский|

Аудио#4: Russian: 48 kHz, AC3, 2/0 (L,R) ch, ~192 kbps avg |Авторский, С.Визгунов|

Аудио#5: English: 48 kHz, DTS, 3/2 (L,C,R,l,r) + LFE ch, ~1509 kbps avg

Субтитры: Russian, English
Уилл Смит предложил роль Альберта Кевину Джеймсу в знак признания актерского мастерства, проявленного Джеймсом в популярном комедийном сериале «The King of Queens» (1998).

Ева Мендес уже имела опыт совместной работы с Уиллом. Будучи еще малоизвестной актрисой, она снималась в видеоклипе Смита «Miami».

Энди Теннант предложил роль восходящей звезде индийского кино Айшварии Рай, однако последняя предпочла поучаствовать в проекте «Невеста и предрассудки», съемки которого проходили в то же время.

Вместо Евы Мендес в роли Сары Милас мы вполне могли увидеть Дженнифер Лопез.

Оригинальным названием сценария фильма было «Последний первый поцелуй».
Общее

Уникальный идентификатор : 189793419474767527427756037356596361468 (0x8EC8E20B11D7EF74A249B7E18B05F8FC)

Полное имя : Hitch.2005.Open.Matte.WEB-DL.MG.1080p.mkv

Формат : Matroska

Версия формата : Version 4 / Version 2

Размер файла : 5,82 Гбайт

Продолжительность : 1 ч. 58 м.

Общий поток : 7049 Кбит/сек

Название фильма : Hitch.2005.Open.Matte.WEB-DL.MG.1080p-SOFCJ

Дата кодирования : UTC 2018-08-01 18:54:25

Программа кодирования : mkvmerge v8.3.0 ('Over the Horizon') 64bit

Библиотека кодирования : libebml v1.3.1 + libmatroska v1.4.2

Attachment : Yes

Видео

Идентификатор : 1

Формат : AVC

Формат/Информация : Advanced Video Codec

Профиль формата : High@L4.0

Параметр CABAC формата : Да

Параметр ReFrames формата : 3 кадра

Параметр GOP формата : N=1

Идентификатор кодека : V_MPEG4/ISO/AVC

Продолжительность : 1 ч. 58 м.

Битрейт : 4000 Кбит/сек

Ширина : 1912 пикселей

Высота : 1080 пикселей

Соотношение сторон : 16:9

Режим частоты кадров : Постоянный

Частота кадров : 23,976 кадра/сек

Цветовое пространство : YUV

Субдискретизация насыщенности : 4:2:0

Битовая глубина : 8 бит

Тип развёртки : Прогрессивная

Бит/(Пиксели*Кадры) : 0.081

Размер потока : 3,19 Гбайт (55%)

Заголовок : [MEGOGO by SOFCJ]

Библиотека кодирования : x264 core 142 r2389 956c8d8

Настройки программы : cabac=1 / ref=3 / deblock=1:0:0 / analyse=0x3:0x133 / me=umh / subme=7 / psy=1 / psy_rd=1.00:0.00 / mixed_ref=1 / me_range=32 / chroma_me=1 / trellis=2 / 8x8dct=1 / cqm=0 / deadzone=21,11 / fast_pskip=1 / chroma_qp_offset=-2 / threads=12 / lookahead_threads=2 / sliced_threads=0 / nr=0 / decimate=1 / interlaced=0 / bluray_compat=0 / constrained_intra=0 / bframes=0 / weightp=0 / keyint=71 / keyint_min=24 / scenecut=40 / intra_refresh=0 / rc_lookahead=50 / rc=2pass / mbtree=0 / bitrate=4000 / ratetol=1.0 / qcomp=0.20 / qpmin=10 / qpmax=51 / qpstep=4 / cplxblur=20.0 / qblur=0.5 / vbv_maxrate=5000 / vbv_bufsize=5000 / nal_hrd=none / filler=0 / ip_ratio=1.40 / aq=1:1.00

Язык : English

Default : Да

Forced : Нет

Основные цвета : BT.709

Характеристики трансфера : BT.709

Коэффициенты матрицы : BT.709

Аудио #1

Идентификатор : 2

Формат : AC-3

Формат/Информация : Audio Coding 3

Расширение режима : CM (complete main)

Параметр Endianness формата : Big

Идентификатор кодека : A_AC3

Продолжительность : 1 ч. 58 м.

Вид битрейта : Постоянный

Битрейт : 448 Кбит/сек

Каналы : 6 каналов

Расположение каналов : Front: L C R, Side: L R, LFE

Частота : 48,0 КГц

Битовая глубина : 16 бит

Метод сжатия : С потерями

Размер потока : 379 Мбайт (6%)

Заголовок : Dub [Невафильм]

Язык : Russian

Default : Да

Forced : Нет

Аудио #2

Идентификатор : 3

Формат : AC-3

Формат/Информация : Audio Coding 3

Расширение режима : CM (complete main)

Параметр Endianness формата : Big

Идентификатор кодека : A_AC3

Продолжительность : 1 ч. 58 м.

Вид битрейта : Постоянный

Битрейт : 448 Кбит/сек

Каналы : 6 каналов

Расположение каналов : Front: L C R, Side: L R, LFE

Частота : 48,0 КГц

Битовая глубина : 16 бит

Метод сжатия : С потерями

Размер потока : 379 Мбайт (6%)

Заголовок : DVO [Tycoon-Studio]

Язык : Russian

Default : Нет

Forced : Нет

Аудио #3

Идентификатор : 4

Формат : AC-3

Формат/Информация : Audio Coding 3

Расширение режима : CM (complete main)

Параметр Endianness формата : Big

Идентификатор кодека : A_AC3

Продолжительность : 1 ч. 58 м.

Вид битрейта : Постоянный

Битрейт : 448 Кбит/сек

Каналы : 6 каналов

Расположение каналов : Front: L C R, Side: L R, LFE

Частота : 48,0 КГц

Битовая глубина : 16 бит

Метод сжатия : С потерями

Размер потока : 379 Мбайт (6%)

Заголовок : AVO [Карповский]

Язык : Russian

Default : Нет

Forced : Нет

Аудио #4

Идентификатор : 5

Формат : AC-3

Формат/Информация : Audio Coding 3

Расширение режима : CM (complete main)

Параметр Endianness формата : Big

Идентификатор кодека : A_AC3

Продолжительность : 1 ч. 58 м.

Вид битрейта : Постоянный

Битрейт : 192 Кбит/сек

Каналы : 2 канала

Расположение каналов : Front: L R

Частота : 48,0 КГц

Битовая глубина : 16 бит

Метод сжатия : С потерями

Размер потока : 162 Мбайт (3%)

Заголовок : AVO [Визгунов]

Язык : Russian

Default : Нет

Forced : Нет

Аудио #5

Идентификатор : 6

Формат : DTS

Формат/Информация : Digital Theater Systems

Режим : 16

Параметр Endianness формата : Big

Идентификатор кодека : A_DTS

Продолжительность : 1 ч. 58 м.

Вид битрейта : Постоянный

Битрейт : 1510 Кбит/сек

Каналы : 6 каналов

Расположение каналов : Front: L C R, Side: L R, LFE

Частота : 48,0 КГц

Битовая глубина : 24 бит

Метод сжатия : С потерями

Размер потока : 1,25 Гбайт (21%)

Заголовок : Original [BD]

Язык : English

Default : Нет

Forced : Нет

Текст #1

Идентификатор : 7

Формат : UTF-8

Идентификатор кодека : S_TEXT/UTF8

Идентификатор кодека/Информация : UTF-8 Plain Text

Язык : Russian

Default : Нет

Forced : Нет

Текст #2

Идентификатор : 8

Формат : UTF-8

Идентификатор кодека : S_TEXT/UTF8

Идентификатор кодека/Информация : UTF-8 Plain Text

Язык : English

Default : Нет

Forced : Нет
pb.wtf



Скачать Правила съема: Метод Хитча через торрент https://pic1.kartinco.top/images/11/yiyye.jpg Скачать, смотреть онлайн Правила съема: Метод Хитча бесплантно в хорошем качестве О фильме: Алекс «Хитч» Хитченс — легендарный нью-йоркский «доктор-сват». Множеству мужчин он помог добиться взаимности от женщин их мечты. ... 10 10 2
Торрент: Зарегистрирован [2018-08-02 08:30] · скачан: 94 раз
Статус: T временная
Размер: 5.82 GB
Как cкачать? Как скачать Правила съема: Метод Хитча через торрент | UTorrent

28-11-2019 20:33  

Отключить всю рекламу на сайте

02-08-2018 08:58 Правила съема: Метод Хитча Скачать торрент  

lic007, https://pb.wtf/topic/214847/
Обратите внимание, заголовок должен соответствовать общепринятому на нашем трекере, а также меняем информер IMDb на наш.
Все поправил, прошу вас в будущем оформлять раздачи в Релизах по парсеру в соответствии с Правилами раздела.pb.wtf



    Дорогой пользователь! Огромная просьба, поблагодарите релизера, оцените раздачу и оставьте свои комментарий, если Вы скачали Правила съема: Метод Хитча через торрент бесплатно!
    Комментировать посты могут только пользователи прошедшие не сложную регистрацию
    Показать сообщения:    

    Правила съема: Метод Хитча через торрент
    Скачать бесплатно Правила съема: Метод Хитча
    Правила съема: Метод Хитча скачать торрент
    Правила съема: Метод Хитча смотреть онлайн
    Cкачать фильм Правила съема: Метод Хитча бесплатно
    Правила съема: Метод Хитча скачать торрент в хорошем качестве
    Правила съема: Метод Хитча смотреть онлайн бесплатно в хорошем качестве


    Вы не можете начинать темы
    Вы не можете отвечать на сообщения
    Вы не можете редактировать свои сообщения
    Вы не можете удалять свои сообщения
    Вы не можете голосовать в опросах
    Вы не можете прикреплять файлы к сообщениям
    Вы можете скачивать файлы