Ссылка на приватное зеркало всего за 1$. Внимание количество ограничено!!!

OK

1+1

iTunes

мы

OK

1

WEB-DLRip

Джокер

Пифагор

Ведьмак / The Witcher сериал

Лицензия

ПШазам

ОК

Оно 2

iTunes

30
pack

Вам бонус

ВАЖНО

!!Акция!!

Alien_RageХит недели

RePack

Resident Evil 21

ИГРА 18+

pack

RePack

jed

RePack

fifa19

RePack

Assassins Creed: Odyssey

RePack

NEED FOR SPEED™ PAYBACK

4 сезон

9 сезон

Бесстыжие 9 сезон

Все сериалы

все сериалы на PB.wtf

RePack

FAR CRY 5
  

Эль Чапо / El Chapo / Сезон: 3 / Серии: 1-13 из 13 (Эрнесто Контрера, Хосе Мануэль Кравиото) [2018, Драма, криминал, биография, WEBRip] MVO [ColdFilm] pb.wtf

Эль Чапо через торрент pb.wtf

Размер: 4.39 GB | Добавлен: 1 год 5 мес. назад | Торрент скачан:96 раз
Скачать  

02-08-2018 09:21 Эль Чапо Скачать торрент  

Эль Чапо / El Chapo
Год выпуска: 2018
Страна: США
Жанр: Драма, криминал, биография
Продолжительность: ~ 00:42:00
Перевод: Любительский (многоголосый) |
Субтитры: отсутствуют

Режиссер: Эрнесто Контрера, Хосе Мануэль Кравиото

rating

В ролях:

Марко Де Ла О, Валентина Акоста, Алехандро Агилар, Хуан Карлос Олива, Родриго Абд, Жюльетта Пардо, Умберто Бусто, Эрнан Ромо, Абрил Шрайбер

Описание:

В центре криминальной драмы — история мексиканского наркобарона Эль Чапо, который долгое время скрывался от правосудия. В сериале «Эль Чапо» рассказывается о жизни известного преступника, который много лет избегал наказания, потом был пойман и сумел сбежать из тюрьмы. Наркобарону предъявляли обвинения по многочисленным статьям уголовного кодекса, в том числе он проходил подозреваемым по делам об убийстве и похищении людей.

Качество: WEBRip
Формат: AVI

Видео: ~1100 Кбит/с, 720x374, 29.970 fps
Аудио: Русский (MP3, 2 ch, 128 Кбит/с)
скриншот  скриншот  скриншот  скриншот  

Общее
Полное имя : D:\El.Chapo.S03.400p.ColdFilm\El.Chapo.S03E01.400p.ColdFilm.avi
Формат : AVI
Формат/Информация : Audio Video Interleave
Размер файла : 339 Мбайт
Продолжительность : 41 м. 45 с.
Общий поток : 1135 Кбит/сек
Программа кодирования : Lavf57.71.100

Видео
Идентификатор : 1
Формат : MPEG-4 Visual
Профиль формата : Simple@L1
Параметр BVOP формата : Нет
Параметр QPel формата : Нет
Параметр GMC формата : Без точки перехода
Параметр матрицы формата : Default (H.263)
Идентификатор кодека : FMP4
Продолжительность : 41 м. 45 с.
Битрейт : 993 Кбит/сек
Ширина : 720 пикселей
Высота : 374 пикселя
Соотношение сторон : 1,925
Частота кадров : 29,970 кадров/сек
Цветовое пространство : YUV
Субдискретизация насыщенности : 4:2:0
Битовая глубина : 8 бит
Тип развёртки : Прогрессивная
Метод сжатия : С потерями
Бит/(Пиксели*Кадры) : 0.123
Размер потока : 297 Мбайт (87%)
Библиотека кодирования : Lavc57.89.100

Аудио
Идентификатор : 0
Формат : MPEG Audio
Версия формата : Version 1
Профиль формата : Layer 3
Режим : Joint stereo
Расширение режима : MS Stereo
Идентификатор кодека : 55
Идентификатор кодека/Подсказка : MP3
Продолжительность : 41 м. 45 с.
Вид битрейта : Постоянный
Битрейт : 128 Кбит/сек
Каналы : 2 канала
Частота : 48,0 КГц
Метод сжатия : С потерями
Размер потока : 38,2 Мбайт (11%)
Выравнивание : Соединение по промежуткам
Продолжительность промежутка : 33 мс. (1,00 видеокадр)

pb.wtf



Скачать Эль Чапо через торрент http://i1.imageban.ru/out/2018/08/02/e3fa7bc3cbfdc893df6a3162e526ba69.jpg Скачать фильм Эль Чапо через торрент бесплантно в хорошем качестве Описание: В центре криминальной драмы — история мексиканского наркобарона Эль Чапо, который долгое время скрывался от правосудия. В сериале ... 10 10 3
Торрент: Зарегистрирован [2018-08-02 09:21] · скачан: 96 раз
Статус: √ проверено
Размер: 4.39 GB
Как cкачать? Как скачать Эль Чапо через торрент | qTorrent

% Раздел Тема Автор DL S | L
Зарубежные сериалы [ 14.78 GB ] Эль Чапо / El Chapo / Сезон: 3 / Серии: 1-13 из 13 [2019 WEBRip 720p] MVO [Good People] bober100 Скачать
1 | 0
Зарубежные сериалы [ 22.92 GB ] Эль Чапо / El Chapo / Сезон: 3 / Серии: 1-13 из 13 [2018 биография WEB-DL 1080p] MVO [NewStudio] bober100 Скачать
1 | 0
Зарубежные сериалы [ 6.36 GB ] Эль Чапо / El Chapo / Сезон: 3 / Серии: 1-13 из 13 [2018 WEBRip] MVO [Good People] bober100 Скачать
1 | 0
Зарубежные сериалы [ 10.01 GB ] Эль Чапо / El Chapo / Сезон: 3 / Серии: 1-13 из 13 [2018 биография WEBRip 720p] MVO [ColdFilm] bober100 Скачать
1 | 0

28-11-2019 20:33  

Отключить всю рекламу на сайте

    Дорогой пользователь! Огромная просьба, поблагодарите релизера, оцените раздачу и оставьте свои комментарий, если Вы скачали Эль Чапо через торрент бесплатно! Внесите свою лепту в развитие PiratBit!
    Комментировать посты могут только пользователи прошедшие не сложную регистрацию
    Показать сообщения:    

    Эль Чапо через торрент
    Скачать бесплатно Эль Чапо
    Эль Чапо скачать торрент
    Эль Чапо смотреть онлайн
    Cкачать фильм Эль Чапо бесплатно
    Эль Чапо скачать торрент в хорошем качестве
    Эль Чапо смотреть онлайн бесплатно в хорошем качестве


    Вы не можете начинать темы
    Вы не можете отвечать на сообщения
    Вы не можете редактировать свои сообщения
    Вы не можете удалять свои сообщения
    Вы не можете голосовать в опросах
    Вы не можете прикреплять файлы к сообщениям
    Вы можете скачивать файлы