Ссылка на приватное зеркало нашего сайта всего за 1$. Внимание количество ограничено!!!

2 сезон

iTunes

1 сезон

1

2 сезон

2 сезон

iTunes

1 сезон

RePack

30

Ultimate

ВАЖНО

ИГРА 18+

pack

RePack

MK11
pack

Забери бонус

RePack

jed

!!Акция!!

Alien_Rage

RePack

fifa19

RePack

Assassins Creed: Odyssey

RePack

NEED FOR SPEED™ PAYBACK

4 сезон

9 сезон

Бесстыжие 9 сезон

Все сериалы

все сериалы на PB.wtf

RePack

FAR CRY 5
  

Острые предметы / Sharp Objects / Сезон: 1 / Серии: 1-7 из 8 (Жан-Марк Валле) [2018, фэнтези, драма, детектив, приключения, WEB-DL 720p] MVO [AlexFilm] pb.wtf

Острые предметы через торрент pb.wtf

Размер: 7.58 GB | Добавлен: 2 года 2 мес. назад | Торрент скачан:24 раза
Скачать  

02-08-2018 10:16 Острые предметы Скачать торрент  


Острые предметы / Sharp Objects
1 сезон, 1-7 серии из 8
Год выпуска: 2018
Страна: США
Жанр: триллер, драма, детектив, криминал
Продолжительность: ~ 01:01:00 серия
Перевод: профессиональное многоголосое закадровое | AlexFilm
Субтитры: English (SDH)

Режиссер: Жан-Марк Валле

В ролях:

Эми Адамс, Патриша Кларксон, Крис Мессина, Eliza Scanlen, Мэтт Крэйвен, Генри Черни, Мигель Сандовал, Violet Brinson, April Brinson, Сидни Свини

Описание:

Камилла Прикер, не особо удачливый репортер одной из не особо успешных газет Чикаго, мечтает о блестящей карьере. И вот девушке выпадает счастливый шанс, способный резко повысить ее журналистский статус, — Камиллу посылают корреспондентом в маленький городок, где жертвой маньяка стали несколько девочек. Камилла в этом городе родилась и выросла, но погружение в страшную реальность провинциальной жизни оборачивается для нее цепью кошмарных событий.

Релиз:

Перевод: Мисс Джексон и Алиса Галанова
Монтаж и сведение звука: Михаил Шорыгин
Роли озвучивали:

Татьяна Манетина
Евгения Тихонова
Константин Федосеев
Кирилл Патрино
Михаил Федосеев

Сэмпл: http://sendfile.su/1432664

rating

Качество: WEB-DL 720p
Формат: MKV

Видео: 1280x720 (16:9), 23.976 fps, MPEG-4 AVC ~2085 kbps avg, 0.094 bit/pixel
Аудио Rus: 48 kHz, AC3 Dolby Digital, 3/2 (L,C,R,l,r) + LFE ch, ~384.00 kbps
Аудио Eng: 48 kHz, AC3 Dolby Digital, 3/2 (L,C,R,l,r) + LFE ch, ~384.00 kbps


скриншот  скриншот  скриншот  скриншот  
бщее
Уникальный идентификатор : 310524011292395140307314527079671453561 (0xE99CBFCA4172B1EF956B3566AF7AD779)
Полное имя : E:\_Сериалы\_Сериалы\Острые предметы\Sharp.Objects.S01.720p.WEB.Rus.Eng.AlexFilm\Sharp.Objects.S01E01.720p.WEB.Rus.Eng.AlexFilm.mkv
Формат : Matroska
Версия формата : Version 4 / Version 2
Размер файла : 1,23 Гбайт
Продолжительность : 1 ч. 1 м.
Общий поток : 2856 Кбит/сек
Дата кодирования : UTC 2018-07-21 18:47:37
Программа кодирования : mkvmerge v25.0.0 ('Prog Noir') 64-bit
Библиотека кодирования : libebml v1.3.6 + libmatroska v1.4.9

Видео
Идентификатор : 1
Формат : AVC
Формат/Информация : Advanced Video Codec
Профиль формата : High@L3.1
Настройки формата : CABAC / 5 Ref Frames
Параметр CABAC формата : Да
Параметр RefFrames формата : 5 кадров
Идентификатор кодека : V_MPEG4/ISO/AVC
Продолжительность : 1 ч. 1 м.
Битрейт : 2085 Кбит/сек
Ширина : 1280 пикселей
Высота : 720 пикселей
Соотношение сторон : 16:9
Режим частоты кадров : Переменный
Частота кадров : 23,976 (24000/1001) кадра/сек
Цветовое пространство : YUV
Субдискретизация насыщенности : 4:2:0
Битовая глубина : 8 бит
Тип развёртки : Прогрессивная
Бит/(Пиксели*Кадры) : 0.094
Размер потока : 918 Мбайт (73%)
Default : Да
Forced : Нет
Цветовой диапазон : Limited
Основные цвета : BT.709
Характеристики трансфера : BT.709
Коэффициенты матрицы : BT.709

Аудио #1
Идентификатор : 2
Формат : AC-3
Формат/Информация : Audio Coding 3
Идентификатор кодека : A_AC3
Продолжительность : 1 ч. 1 м.
Вид битрейта : Постоянный
Битрейт : 384 Кбит/сек
Каналы : 6 каналов
Расположение каналов : Front: L C R, Side: L R, LFE
Частота : 48,0 КГц
Частота кадров : 31,250 кадров/сек (1536 SPF)
Битовая глубина : 16 бит
Метод сжатия : С потерями
Размер потока : 169 Мбайт (13%)
Язык : Russian
ServiceKind/String : Complete Main
Default : Да
Forced : Нет

Аудио #2
Идентификатор : 3
Формат : AC-3
Формат/Информация : Audio Coding 3
Идентификатор кодека : A_AC3
Продолжительность : 1 ч. 1 м.
Вид битрейта : Постоянный
Битрейт : 384 Кбит/сек
Каналы : 6 каналов
Расположение каналов : Front: L C R, Side: L R, LFE
Частота : 48,0 КГц
Частота кадров : 31,250 кадров/сек (1536 SPF)
Битовая глубина : 16 бит
Метод сжатия : С потерями
Размер потока : 169 Мбайт (13%)
Язык : English
ServiceKind/String : Complete Main
Default : Нет
Forced : Нет

Текст #1
Идентификатор : 4
Формат : UTF-8
Идентификатор кодека : S_TEXT/UTF8
Идентификатор кодека/Информация : UTF-8 Plain Text
Продолжительность : 1 ч. 0 м.
Битрейт : 51 бит/сек
ElementCount : 808
Размер потока : 22,6 Кбайт (0%)
Язык : English
Default : Да
Forced : Нет

Текст #2
Идентификатор : 5
Формат : UTF-8
Идентификатор кодека : S_TEXT/UTF8
Идентификатор кодека/Информация : UTF-8 Plain Text
Продолжительность : 53 м. 50 с.
Битрейт : 47 бит/сек
ElementCount : 667
Размер потока : 18,6 Кбайт (0%)
Заголовок : SDH
Язык : English
Default : Нет
Forced : Нет
Внимание! Раздача ведётся путём добавления новых серий; при каждом добавлении создаётся новый торрент. Чтобы начать докачку новой серии, пользователям необходимо сделать следующее:
(1) остановить скачивание,
(2) удалить старый торрент у себя из клиента (старые серии удалять не надо),
(3) скачать новый торрент и запустить его у себя в клиенте вместо старого, при этом указать клиенту путь в старую папку куда и должно происходить скачивание новых серий.
Ваш клиент при этом должен произвести хеширование (проверку) старой папки (если не производит сам - помогите ему сделать это), и будет докачивать только те серии которых у вас ещё нет. Старые серии при этом не удаляются, а продолжают раздаваться!
Eсли вы уже удалили старые серии, то предотвратить повторную закачку старых серий можно, отжав галочку в соответствующих местах при запуске нового торрента. По возможности, желательно не удалять старые серии как можно дольше чтобы релизёр не столько продолжал раздавать старые серии, а смог сконцентрироваться на новых.
pb.wtf



Скачать Острые предметы через торрент http://i104.fastpic.ru/big/2018/0721/ae/d72789e3888c6ce60b92f82e391e96ae.png Скачать фильм Острые предметы через торрент бесплантно в хорошем качестве Описание: Камилла Прикер, не особо удачливый репортер одной из не особо успешных газет Чикаго, мечтает о блестящей карьере. И вот девушке ... 10 10 2
Торрент: Зарегистрирован [2018-08-31 19:33] · скачан: 24 раз
Статус: √ проверено
Размер: 7.58 GB
Как cкачать? Как скачать Острые предметы через торрент | qTorrent

% Раздел Тема Автор DL S | L
Зарубежные сериалы [ 4.37 GB ] Острые предметы / Sharp Objects / Сезон: 1 / Серии: 1-7 из 8 [2018 WEB-DLRip] MVO [AlexFilm] bober100 Скачать
1 | 0
Зарубежные сериалы [ 27.69 GB ] Острые предметы / Sharp Objects / Сезон: 1 / Серии: 1-7 из 8 [2018 WEB-DL 1080p] MVO [AlexFilm] bober100 Скачать
1 | 0

28-11-2019 20:33  

Отключить всю рекламу на сайте

    Дорогой пользователь! Огромная просьба, поблагодарите релизера, оцените раздачу и оставьте свои комментарий, если Вы скачали Острые предметы через торрент бесплатно! Внесите свою лепту в развитие PiratBit!
    Комментировать посты могут только пользователи прошедшие не сложную регистрацию
    Показать сообщения:    

    Острые предметы через торрент
    Скачать бесплатно Острые предметы
    Острые предметы скачать торрент
    Острые предметы смотреть онлайн
    Cкачать фильм Острые предметы бесплатно
    Острые предметы скачать торрент в хорошем качестве
    Острые предметы смотреть онлайн бесплатно в хорошем качестве


    Вы не можете начинать темы
    Вы не можете отвечать на сообщения
    Вы не можете редактировать свои сообщения
    Вы не можете удалять свои сообщения
    Вы не можете голосовать в опросах
    Вы не можете прикреплять файлы к сообщениям
    Вы можете скачивать файлы