новый адрес пиратбит piratbit
MEGA NEWS Получи личный уникальный адрес сайта и защити себя от блокировок. Внимание количество ограничено!!!

iTunes

1+1

iTunes

мы

iTunes

1

iTunes

Чернобыль

iTunes

Ральф против интернета

Лицензия

ПШазам

Лицензия

Игра престолов

Лицензия

30
pack

ВАЖНО

!!Акция!!

Alien_RageХит недели

RePack

Resident Evil 21

ИГРА 18+

pack

RePack

Metro:Exodus

!!Акция!!

Alien_Rage

RePack

fifa19

RePack

Assassins Creed: Odyssey

RePack

NEED FOR SPEED™ PAYBACK

3 сезон

9 сезон

Бесстыжие 9 сезон

Все сериалы

все сериалы на PB.wtf

RePack

FAR CRY 5
Ребята, катастрофически не хватает 1900р. для оплаты серверов за АВГУСТ (всвязи с блокировками трафик упал в 3 раза), 1-2р., выручайте.
  

Ангелы с грязными лицами / Angels with Dirty Faces (Майкл Кертиц) [1938 г., Мелодрама, WEB-DLRip 1080p, Профессиональный (многоголосый)] pb.wtf

Ангелы с грязными лицами через торрент pb.wtf

Размер: 10.13 GB | Добавлен: 1 год 2 мес. назад | Торрент скачан:2 раза
Скачать  

02-08-2018 11:04 Ангелы с грязными лицами Скачать торрент  

Ангелы с грязными лицами / Angels with Dirty Faces
Год выпуска: 1938
Страна: США
Жанр: Мелодрама
Продолжительность: 01:37:18
Перевод: Профессиональный (многоголосый)
Субтитры: Русские, украинские, английские

Режиссер: Майкл Кертиц

rating

В ролях: Джеймс Кэгни, Пэт О'Брайен, Хамфри Богарт, Энн Шеридан, Джордж Бэнкрофт, Билли Хэлоп, Бобби Джордан, Лио Горси, Гэбриэл Делл, Хантц Холл, Бернард Пансли

Описание: Классическая криминальная мелодрама, по которой было сделано много подражаний. Два друга детства вместе совершили кражу. Один, Рокки Салливэн (Кэгни), попался, взял всю вину на себя, сел в тюрьму и стал профессиональным преступником, а другой (О Брайен) подался в священники. Выйдя из тюрьмы в очередной раз, он пришел к адвокату-партнеру (Богарт), распоряжавшемуся все это время его деньгами, а тот вместо доли послал к нему убийц. Рокки сумел переиграть подонка, но в конце вынужден был убить его вместе с его приспешником, чтобы спасти от смерти друга-священника, хранившего обличающие преступников и коррумпированных чиновников документы. Убил он и нескольких полицейских, за что и был казнен на электрическом стуле.

Качество: WEB-DLRip 1080p
Формат: MKV
Видео кодек: AVC
Видео: AVC, 1440x1080 , 23.9fps, 14,2 Mbps
Аудио кодек: AC3
Аудио: 1 AC3, 1 ch, 192 kbps - Русский многоголосый (Film Prestige)
Аудио: 2 AC3, 1 ch, 96 kbps - Русский многоголосый (Россия)
Аудио: 3 AC3, 1 ch, 192 kbps - Английский
Аудио: 4 AC3, 2 ch, 192 kbps - Commentary with film historian Dana Polan
скриншот   скриншот   скриншот   скриншот  

General
Unique ID : 235268436275075958582042635914892228593 (0xB0FF0D79C21A49BDA8BA70318CEB37F1)
Complete name : D:WEB-DLAngels.with.Dirty.Faces.1938.1080p.WEB-DL.mkv
Format : Matroska
Format version : Version 4 / Version 2
File size : 10.1 GiB
Duration : 1 h 37 min
Overall bit rate mode : Variable
Overall bit rate : 14.9 Mb/s
Movie name : Angels with Dirty Faces.1938.WEB-DL.1080p
Encoded date : UTC 2018-07-27 12:44:48
Writing application : mkvmerge v8.3.0 ('Over the Horizon') 64bit
Writing library : libebml v1.3.1 + libmatroska v1.4.2

Video
ID : 1
Format : AVC
Format/Info : Advanced Video Codec
Format profile : High@L4
Format settings : CABAC / 4 Ref Frames
Format settings, CABAC : Yes
Format settings, ReFrames : 4 frames
Codec ID : V_MPEG4/ISO/AVC
Duration : 1 h 37 min
Bit rate mode : Variable
Bit rate : 14.2 Mb/s
Maximum bit rate : 15.0 Mb/s
Width : 1 440 pixels
Height : 1 080 pixels
Display aspect ratio : 1.370
Original display aspect rat : 4:3
Frame rate mode : Constant
Frame rate : 23.976 (24000/1001) FPS
Color space : YUV
Chroma subsampling : 4:2:0
Bit depth : 8 bits
Scan type : Progressive
Bits/(Pixel*Frame) : 0.382
Stream size : 9.67 GiB (95%)
Title : Angels with Dirty Faces.1938.WEB-DL.1080p
Writing library : x264 core 148 r2623 d5b2374
Encoding settings : cabac=1 / ref=4 / deblock=1:-1:-1 / analyse=0x3:0x133 / me=umh / subme=9 / psy=1 / psy_rd=1.00:0.15 / mixed_ref=1 / me_range=24 / chroma_me=1 / trellis=2 / 8x8dct=1 / cqm=0 / deadzone=21,11 / fast_pskip=1 / chroma_qp_offset=-3 / threads=34 / lookahead_threads=5 / sliced_threads=0 / nr=150 / decimate=1 / interlaced=0 / bluray_compat=0 / constrained_intra=0 / bframes=8 / b_pyramid=2 / b_adapt=2 / b_bias=0 / direct=3 / weightb=1 / open_gop=0 / weightp=2 / keyint=120 / keyint_min=61 / scenecut=0 / intra_refresh=0 / rc_lookahead=120 / rc=crf / mbtree=1 / crf=18.0 / qcomp=0.60 / qpmin=0 / qpmax=69 / qpstep=4 / vbv_maxrate=15000 / vbv_bufsize=31250 / crf_max=0.0 / nal_hrd=vbr / filler=0 / ip_ratio=1.40 / aq=3:1.00
Language : English
Default : Yes
Forced : No
Color range : Limited
Color primaries : BT.709
Transfer characteristics : BT.709
Matrix coefficients : BT.709

Audio #1
ID : 2
Format : AC-3
Format/Info : Audio Coding 3
Codec ID : A_AC3
Duration : 1 h 37 min
Bit rate mode : Constant
Bit rate : 192 kb/s
Channel(s) : 1 channel
Channel positions : Front: C
Sampling rate : 48.0 kHz
Frame rate : 31.250 FPS (1536 SPF)
Bit depth : 16 bits
Compression mode : Lossy
Stream size : 134 MiB (1%)
Title : AC3 1.0 @ 192 kbps - MVO, Film Prestige
Language : Russian
Service kind : Complete Main
Default : Yes
Forced : No

Audio #2
ID : 3
Format : AC-3
Format/Info : Audio Coding 3
Codec ID : A_AC3
Duration : 1 h 37 min
Bit rate mode : Constant
Bit rate : 96.0 kb/s
Channel(s) : 1 channel
Channel positions : Front: C
Sampling rate : 48.0 kHz
Frame rate : 31.250 FPS (1536 SPF)
Bit depth : 16 bits
Compression mode : Lossy
Stream size : 66.8 MiB (1%)
Title : AC3 1.0 @ 96 kbps - MVO, телеканал «Россия»
Language : Russian
Service kind : Complete Main
Default : No
Forced : No

Audio #3
ID : 4
Format : AC-3
Format/Info : Audio Coding 3
Codec ID : A_AC3
Duration : 1 h 37 min
Bit rate mode : Constant
Bit rate : 192 kb/s
Channel(s) : 1 channel
Channel positions : Front: C
Sampling rate : 48.0 kHz
Frame rate : 31.250 FPS (1536 SPF)
Bit depth : 16 bits
Compression mode : Lossy
Stream size : 134 MiB (1%)
Title : AC3 1.0 @ 192 kbps - Original
Language : English
Service kind : Complete Main
Default : No
Forced : No

Audio #4
ID : 5
Format : AC-3
Format/Info : Audio Coding 3
Codec ID : A_AC3
Duration : 1 h 37 min
Bit rate mode : Constant
Bit rate : 192 kb/s
Channel(s) : 2 channels
Channel positions : Front: L R
Sampling rate : 48.0 kHz
Frame rate : 31.250 FPS (1536 SPF)
Bit depth : 16 bits
Compression mode : Lossy
Stream size : 134 MiB (1%)
Title : Commentary with film historian Dana Polan
Language : English
Service kind : Complete Main
Default : No
Forced : No

Text #1
ID : 6
Format : UTF-8
Codec ID : S_TEXT/UTF8
Codec ID/Info : UTF-8 Plain Text
Duration : 1 h 36 min
Bit rate : 109 b/s
Count of elements : 1254
Stream size : 77.1 KiB (0%)
Language : Russian
Default : No
Forced : No

Text #2
ID : 7
Format : UTF-8
Codec ID : S_TEXT/UTF8
Codec ID/Info : UTF-8 Plain Text
Duration : 1 h 36 min
Bit rate : 108 b/s
Count of elements : 1254
Stream size : 77.2 KiB (0%)
Language : Ukrainian
Default : No
Forced : No

Text #3
ID : 8
Format : UTF-8
Codec ID : S_TEXT/UTF8
Codec ID/Info : UTF-8 Plain Text
Duration : 1 h 34 min
Bit rate : 81 b/s
Count of elements : 1338
Stream size : 56.7 KiB (0%)
Language : English
Default : No
Forced : No

Menu
00:00:00.000 : en:01. Credits
00:00:57.532 : en:02. Young Hoodlums
00:05:03.478 : en:03. Life of Crime
00:08:30.853 : en:04. Father Jerry
00:14:24.339 : en:05. That Little Fresh Kid
00:16:49.352 : en:06. Agreement With Frazier
00:21:14.417 : en:07. Rolled for His Poke
00:26:57.461 : en:08. Beans to Basketball
00:31:01.872 : en:09. New Referee
00:37:04.534 : en:10. Drugstore Trap
00:42:00.330 : en:11. He's Sore
00:45:04.547 : en:12. Stashing the Dough
00:50:41.384 : en:13. Guys Who Talk
00:55:49.825 : en:14. Money Talks
01:01:45.048 : en:15. A Job for Laury
01:04:52.402 : en:16. Reverend's Request
01:09:55.539 : en:17. Other Lives
01:15:36.346 : en:18. Gunfight at El Toro
01:20:40.650 : en:19. Hostage Standoff
01:25:43.152 : en:20. One Last Favor
01:31:10.980 : en:21. Walk to the Chair
01:33:39.929 : en:22. Dying Yellow
01:36:32.135 : en:23. Cast List

pb.wtf



Скачать Ангелы с грязными лицами через торрент http://pic1.kartinco.top/images/11/o9bmh.jpg Скачать фильм Ангелы с грязными лицами через торрент бесплантно в хорошем качестве Описание: Классическая криминальная мелодрама, по которой было сделано много подражаний. Два друга детства вместе совершили кражу. Один, ... 10 10 2
Info! Золотая раздача, скачанное не засчитывается.
Торрент: Зарегистрирован [2018-08-02 11:04] · скачан: 2 раз
Статус: √ проверено
Размер: 10.13 GB
Как cкачать? Как скачать Ангелы с грязными лицами через торрент | qTorrent


>> Регистрируемся здесь <<






Отзывы и комментарии о схеме читаем и пишем здесь: ---> Отзывы и комментарии о схеме

Новые благодарочки в телеграм довольных пользователей:
скриншот   скриншот   скриншот   скриншот   скриншот
    Дорогой пользователь! Огромная просьба, поблагодарите релизера, оцените раздачу и оставьте свои комментарий, если Вы скачали Ангелы с грязными лицами через торрент бесплатно! Внесите свою лепту в развитие PiratBit!
    Комментировать посты могут только пользователи прошедшие не сложную регистрацию
    Показать сообщения:    

    Ангелы с грязными лицами через торрент
    Скачать бесплатно Ангелы с грязными лицами
    Ангелы с грязными лицами скачать торрент
    Ангелы с грязными лицами смотреть онлайн
    Cкачать фильм Ангелы с грязными лицами бесплатно
    Ангелы с грязными лицами скачать торрент в хорошем качестве
    Ангелы с грязными лицами смотреть онлайн бесплатно в хорошем качестве


    Вы не можете начинать темы
    Вы не можете отвечать на сообщения
    Вы не можете редактировать свои сообщения
    Вы не можете удалять свои сообщения
    Вы не можете голосовать в опросах
    Вы не можете прикреплять файлы к сообщениям
    Вы можете скачивать файлы