Marvel's Avengers Deluxe Edition (супер цена) 159р. Внимание количество ограничено!!!

2 сезон

iTunes

iTunes

1

iTunes

iTunes

iTunes

WEBRip

iTunes

30
pack

Новость дня

ВАЖНО

!!Акция!!

Alien_RageХит недели

RePack

Horizon Zero Dawn

ИГРА 18+

pack

RePack

jed

!!Акция!!

Alien_Rage

RePack

fifa19

RePack

Assassins Creed: Odyssey

RePack

NEED FOR SPEED™ PAYBACK

4 сезон

9 сезон

Бесстыжие 9 сезон

Все сериалы

все сериалы на PB.wtf

RePack

FAR CRY 5
  

Попробуй подкати / Tout le monde debout (Франк Дюбоск) [2018, Мелодрама, комедия, BD Remux 1080p] DUB [iTunes] pb.wtf

Попробуй подкати через торрент pb.wtf

Размер: 27.03 GB | Добавлен: 2 года 1 мес. назад | Торрент скачан:51 раз
Скачать  

02-08-2018 13:42 Попробуй подкати Скачать торрент  

Попробуй подкати / Tout le monde debout
Год выпуска: 2018
Страна: Франция, Бельгия
Жанр: Мелодрама, комедия
Продолжительность: 01:47:34
Перевод: Дублированный | iTunes
Субтитры: отсутствуют

Режиссер: Франк Дюбоск

rating

В ролях:

Франк Дюбоск, Александра Лами, Эльза Зильберштейн, Жерар Дармон, Каролин Англад, Лоран Бато, Клод Брассёр, Франсуа-Ксавье Демезон, Летиция Белличчини, Кристоф Канар

Описание:

Успешный бизнесмен и эгоистичный мачо пускает в ход все свои уловки, чтобы соблазнять девушек. Но однажды он сам оказывается в крайне щекотливой ситуации.

Качество: BD Remux 1080p
Формат: MKV

Видео: MPEG-4 AVC, 1920x1080, 31.8 Mbit/s, 23.976 fps
Аудио#1: 48 kHz, AC3, 5.1, 384 Kbps | iTunes | RUS |
Аудио#2: 48 kHz, DTS-HD MA, 5.1, 3840 Kbps | Оригинал | FRE |
скриншот  скриншот  скриншот  скриншот  скриншот  

General
Unique ID : 79332824356075062078718074446841033288 (0x3BAEF23A2A13EC5466452CC75C76B248)
Complete name : E:VideoTout.Le.Monde.Debout.2018.BDREMUX.1080p.ExKinoRay.mkv
Format : Matroska
Format version : Version 4 / Version 2
File size : 27.0 GiB
Duration : 1 h 47 min
Overall bit rate mode : Variable
Overall bit rate : 36.0 Mb/s
Movie name : Tout le Monde Debout 2018 from EXKinoRay
Encoded date : UTC 2018-08-02 12:15:51
Writing application : mkvmerge v23.0.0 ('The Bride Said No') 64-bit
Writing library : libebml v1.3.6 + libmatroska v1.4.9

Video
ID : 1
Format : AVC
Format/Info : Advanced Video Codec
Format profile : High@L4.1
Format settings : CABAC / 4 Ref Frames
Format settings, CABAC : Yes
Format settings, ReFrames : 4 frames
Format settings, GOP : M=3, N=24
Codec ID : V_MPEG4/ISO/AVC
Duration : 1 h 47 min
Bit rate mode : Variable
Bit rate : 31.8 Mb/s
Maximum bit rate : 35.0 Mb/s
Width : 1 920 pixels
Height : 1 080 pixels
Display aspect ratio : 16:9
Frame rate mode : Constant
Frame rate : 24.000 FPS
Standard : NTSC
Color space : YUV
Chroma subsampling : 4:2:0
Bit depth : 8 bits
Scan type : Progressive
Bits/(Pixel*Frame) : 0.639
Stream size : 23.9 GiB (88%)
Language : French
Default : Yes
Forced : No
Color range : Limited
Color primaries : BT.709
Transfer characteristics : BT.709
Matrix coefficients : BT.709

Audio #1
ID : 2
Format : AC-3
Format/Info : Audio Coding 3
Codec ID : A_AC3
Duration : 1 h 47 min
Bit rate mode : Constant
Bit rate : 384 kb/s
Channel(s) : 6 channels
Channel positions : Front: L C R, Side: L R, LFE
Sampling rate : 48.0 kHz
Frame rate : 31.250 FPS (1536 SPF)
Bit depth : 16 bits
Compression mode : Lossy
Stream size : 295 MiB (1%)
Title : iTunes
Language : Russian
Service kind : Complete Main
Default : Yes
Forced : Yes

Audio #2
ID : 3
Format : DTS
Format/Info : Digital Theater Systems
Format profile : MA / Core
Codec ID : A_DTS
Duration : 1 h 47 min
Bit rate mode : Variable / Constant
Bit rate : 3 840 kb/s / 1 509 kb/s
Channel(s) : 6 channels
Channel positions : Front: L C R, Side: L R, LFE
Sampling rate : 48.0 kHz
Frame rate : 93.750 FPS (512 SPF)
Bit depth : 24 bits
Compression mode : Lossless / Lossy
Stream size : 2.86 GiB (11%)
Title : Original
Language : French
Default : No
Forced : No

Menu
00:00:00.000 : en:Chapter 1
00:09:54.625 : en:Chapter 2
00:17:21.083 : en:Chapter 3
00:27:31.208 : en:Chapter 4
00:35:17.333 : en:Chapter 5
00:44:15.791 : en:Chapter 6
00:55:18.208 : en:Chapter 7
01:04:36.458 : en:Chapter 8
01:12:49.791 : en:Chapter 9
01:21:02.208 : en:Chapter 10
01:29:16.125 : en:Chapter 11
01:36:07.750 : en:Chapter 12

pb.wtf



Скачать Попробуй подкати через торрент https://i99.fastpic.ru/big/2018/0802/4b/85bf726e043f3982188d464be775474b.jpg Скачать фильм Попробуй подкати через торрент бесплантно в хорошем качестве Описание: Успешный бизнесмен и эгоистичный мачо пускает в ход все свои уловки, чтобы соблазнять девушек. Но однажды он сам оказывается в ... 10 10 4
Торрент: Зарегистрирован [2018-08-02 13:42] · скачан: 51 раз
Статус: √ проверено
Размер: 27.03 GB
Как cкачать? Как скачать Попробуй подкати через торрент | qTorrent

% Раздел Тема Автор DL S | L
Фильмы 2018 [DVDrip, WEB-DLRip, HDrip] (DUB, MVO) [ 1.41 GB ] Попробуй подкати / Tout le monde debout [2018 BDRip] - Twi7ter Скачать
2 | 0
T Фильмы [HD 720p, 1080p] (Хороший звук DUB, MVO) [ 8.23 GB ] Попробуй подкати / Tout le monde debout [2018 BDRip 1080p] -Lexx- Скачать
3 | 0
Фильмы 2018 [DVDrip, WEB-DLRip, HDrip] (DUB, MVO) [ 2.05 GB ] Попробуй подкати / Tout le monde debout [2018 Мело HDRip] bober100 Скачать
1 | 0
Фильмы 2018 [DVDrip, WEB-DLRip, HDrip] (DUB, MVO) [ 1.62 GB ] Попробуй подкати / Tout le monde debout [2018 Мело HDRip-AVC] bober100 Скачать
1 | 0
Фильмы 2018 [DVDrip, WEB-DLRip, HDrip] (DUB, MVO) [ 715 MB ] Попробуй подкати / Tout le monde debout [2018 WEB-DLRip ""] coc900 Скачать
1 | 0
Фильмы 2018 [DVDrip, WEB-DLRip, HDrip] (DUB, MVO) [ 1.37 GB ] Попробуй подкати / Tout le monde debout [2018 Мело HDRip] bober100 Скачать
2 | 0
Фильмы (WEB-DL 720p, 1080p) [ 3.72 GB ] Попробуй подкати / Tout le monde debout [2018 Мело WEB-DL 1080p] bober100 Скачать
1 | 0

28-11-2019 20:33  

Отключить всю рекламу на сайте

    Дорогой пользователь! Огромная просьба, поблагодарите релизера, оцените раздачу и оставьте свои комментарий, если Вы скачали Попробуй подкати через торрент бесплатно! Внесите свою лепту в развитие PiratBit!
    Комментировать посты могут только пользователи прошедшие не сложную регистрацию
    Показать сообщения:    

    Попробуй подкати через торрент
    Скачать бесплатно Попробуй подкати
    Попробуй подкати скачать торрент
    Попробуй подкати смотреть онлайн
    Cкачать фильм Попробуй подкати бесплатно
    Попробуй подкати скачать торрент в хорошем качестве
    Попробуй подкати смотреть онлайн бесплатно в хорошем качестве


    Вы не можете начинать темы
    Вы не можете отвечать на сообщения
    Вы не можете редактировать свои сообщения
    Вы не можете удалять свои сообщения
    Вы не можете голосовать в опросах
    Вы не можете прикреплять файлы к сообщениям
    Вы можете скачивать файлы