Ссылка на приватное зеркало всего за 1$. Внимание количество ограничено!!!

iTunes

1+1

iTunes

мы

WEB-DL

1

iTunes

Чернобыль

iTunes

Ральф против интернета

Лицензия

ПШазам

Лицензия

Оно 2

Лицензия

30
pack

Вам бонус

ВАЖНО

!!Акция!!

Alien_RageХит недели

RePack

Resident Evil 21

ИГРА 18+

pack

RePack

jed

!!Акция!!

Alien_Rage

RePack

fifa19

RePack

Assassins Creed: Odyssey

RePack

NEED FOR SPEED™ PAYBACK

3 сезон

9 сезон

Бесстыжие 9 сезон

Все сериалы

все сериалы на PB.wtf

RePack

FAR CRY 5
Ребята, катастрофически не хватает 1900р. для оплаты серверов за Октябрь (всвязи с блокировками трафик упал в 3 раза), 1-2р., выручайте.
  

Попробуй подкати / Tout le monde debout (Франк Дюбоск) [2018 г., мелодрама, комедия, WEB-DLRip, Дубляж "iTunes"] pb.wtf

Попробуй подкати через торрент pb.wtf

Размер: 715 MB | Добавлен: 1 год 4 мес. назад | Торрент скачан:140 раз
Скачать  

02-08-2018 18:14 Попробуй подкати Скачать торрент  

Попробуй подкати / Tout le monde debout
Год выпуска: 2018
Страна: Франция, Бельгия / Gaumont, La Boétie Films, Pour Toi Public Productions
Жанр: мелодрама, комедия
Продолжительность: 01:47:52
Перевод: Дубляж (iTunes)

Режиссер: Франк Дюбоск

rating

В ролях: Франк Дюбоск, Александра Лами, Эльза Зильберштейн, Жерар Дармон, Каролин Англад, Лоран Бато, Клод Брассёр, Франсуа-Ксавье Демезон, Летиция Белличчини, Кристоф Канар

Описание: Жослен – успешный бизнесмен и эгоистичный мачо, он никогда не упускает случая, чтобы соблазнить женщину, а еще обожает фантазировать и врать. Но однажды он оказывается в крайне щекотливой ситуации. Красавица Джули, с которой он не прочь замутить, по чистой случайности приняла его за инвалида-колясочника, и Жослен решает продолжить игру, чтобы таким образом завоевать сердце девушки. Но затем он знакомится с сестрой Джули Флоренс – обаятельной и оптимистичной женщиной, по-настоящему прикованной к инвалидному креслу, и поддерживать легенду становится все сложнее…

Качество: WEB-DLRip
Формат: AVI
Видео кодек: XviD
Аудио кодек: MP3
Видео: 656x272 (2.41:1), 23.976 fps, XviD build 50 ~789 kbps avg, 0.18 bit/pixel
Аудио: 48 kHz, MPEG Layer 3, 2 ch, ~128.00 kbps avg
скриншот   скриншот   скриншот   скриншот   скриншот   скриншот   скриншот   скриншот  

Общее
Полное имя : F:\ФИЛЬМЫ\Попробуй подкати.2018.D.WEB-DLRip.avi
Формат : AVI
Формат/Информация : Audio Video Interleave
Размер файла : 715 Мбайт
Продолжительность : 1 ч. 47 м.
Общий поток : 927 Кбит/сек
Программа кодирования : VirtualDubMod 1.5.10.3 | www.virtualdub-fr.org || (build 2550/release)
Библиотека кодирования : VirtualDubMod build 2550/release

Видео
Идентификатор : 0
Формат : MPEG-4 Visual
Профиль формата : Advanced Simple@L5
Настройки формата : BVOP1
Параметр BVOP формата : 1
Параметр QPel формата : Нет
Параметр GMC формата : Без точки перехода
Параметр матрицы формата : Default (MPEG)
Идентификатор кодека : DX50
Идентификатор кодека/Подсказка : DivX 5
Продолжительность : 1 ч. 47 м.
Битрейт : 790 Кбит/сек
Ширина : 656 пикселей
Высота : 272 пикселя
Соотношение сторон : 2,40:1
Частота кадров : 23,976 (24000/1001) кадра/сек
Цветовое пространство : YUV
Субдискретизация насыщенности : 4:2:0
Битовая глубина : 8 бит
Тип развёртки : Прогрессивная
Метод сжатия : С потерями
Бит/(Пиксели*Кадры) : 0.185
Размер потока : 610 Мбайт (85%)
Библиотека кодирования : XviD 1.2.1 (UTC 2008-12-04)

Аудио
Идентификатор : 1
Формат : MPEG Audio
Версия формата : Version 1
Профиль формата : Layer 3
Настройки формата : Joint stereo / MS Stereo
Идентификатор кодека : 55
Идентификатор кодека/Подсказка : MP3
Продолжительность : 1 ч. 47 м.
Вид битрейта : Постоянный
Битрейт : 128 Кбит/сек
Каналы : 2 канала
Частота : 48,0 КГц
Частота кадров : 41,667 кадра/сек (1152 SPF)
Метод сжатия : С потерями
Размер потока : 98,8 Мбайт (14%)
Выравнивание : Соединение по промежуткам
Продолжительность промежутка : 42 мс. (1,00 видеокадр)
Время предзагрузки промежутка : 504 мс.
Библиотека кодирования : LAME3.99r
Настройки программы : -m j -V 4 -q 2 -lowpass 17 -b 128

pb.wtf



Скачать Попробуй подкати через торрент http://pic1.kartinco.top/images/11/ps3ho.jpg Скачать фильм Попробуй подкати через торрент бесплантно в хорошем качестве Описание: Жослен – успешный бизнесмен и эгоистичный мачо, он никогда не упускает случая, чтобы соблазнить женщину, а еще обожает ... 10 10 5
Торрент: Зарегистрирован [2018-08-02 18:14] · скачан: 140 раз
Статус: √ проверено
Размер: 715 MB
Как cкачать? Как скачать Попробуй подкати через торрент | qTorrent

% Раздел Тема Автор DL S | L
Фильмы 2018 [DVDrip, WEB-DLRip, HDrip] (DUB, MVO) [ 1.41 GB ] Попробуй подкати / Tout le monde debout [2018 BDRip] - Twi7ter Скачать
3 | 0
T Фильмы [HD 720p, 1080p] (Хороший звук DUB, MVO) [ 8.23 GB ] Попробуй подкати / Tout le monde debout [2018 BDRip 1080p] -Lexx- Скачать
7 | 0
Фильмы 2018 [DVDrip, WEB-DLRip, HDrip] (DUB, MVO) [ 2.05 GB ] Попробуй подкати / Tout le monde debout [2018 Мело HDRip] bober100 Скачать
1 | 0
Фильмы 2018 [DVDrip, WEB-DLRip, HDrip] (DUB, MVO) [ 1.62 GB ] Попробуй подкати / Tout le monde debout [2018 Мело HDRip-AVC] bober100 Скачать
1 | 0
Фильмы (Blu-ray, BD-Remux, HDDVD) [ 27.03 GB ] Попробуй подкати / Tout le monde debout [2018 Мело BD Remux 1080p] bober100 Скачать
1 | 0
Фильмы 2018 [DVDrip, WEB-DLRip, HDrip] (DUB, MVO) [ 1.37 GB ] Попробуй подкати / Tout le monde debout [2018 Мело HDRip] bober100 Скачать
4 | 0
Фильмы (WEB-DL 720p, 1080p) [ 3.72 GB ] Попробуй подкати / Tout le monde debout [2018 Мело WEB-DL 1080p] bober100 Скачать
1 | 0

28-11-2019 20:33  

Отключить всю рекламу на сайте

    Дорогой пользователь! Огромная просьба, поблагодарите релизера, оцените раздачу и оставьте свои комментарий, если Вы скачали Попробуй подкати через торрент бесплатно! Внесите свою лепту в развитие PiratBit!
    Комментировать посты могут только пользователи прошедшие не сложную регистрацию
    Показать сообщения:    

    Попробуй подкати через торрент
    Скачать бесплатно Попробуй подкати
    Попробуй подкати скачать торрент
    Попробуй подкати смотреть онлайн
    Cкачать фильм Попробуй подкати бесплатно
    Попробуй подкати скачать торрент в хорошем качестве
    Попробуй подкати смотреть онлайн бесплатно в хорошем качестве


    Вы не можете начинать темы
    Вы не можете отвечать на сообщения
    Вы не можете редактировать свои сообщения
    Вы не можете удалять свои сообщения
    Вы не можете голосовать в опросах
    Вы не можете прикреплять файлы к сообщениям
    Вы можете скачивать файлы