Ссылка на приватное зеркало нашего сайта всего за 1$. Внимание количество ограничено!!!

2 сезон

iTunes

1 сезон

1

2 сезон

2 сезон

iTunes

1 сезон

RePack

30

Новинка

ВАЖНО

ИГРА 18+

pack

RePack

MK11
pack

Забери бонус

RePack

jed

!!Акция!!

Alien_Rage

RePack

fifa19

RePack

Assassins Creed: Odyssey

RePack

NEED FOR SPEED™ PAYBACK

4 сезон

9 сезон

Бесстыжие 9 сезон

Все сериалы

все сериалы на PB.wtf

RePack

FAR CRY 5
  

Попробуй подкати / Tout le monde debout (Франк Дюбоск) [2018, мелодрама, комедия, BDRip 1080p] DUB [iTunes] pb.wtf

Попробуй подкати через торрент pb.wtf

Размер: 8.23 GB | Добавлен: 2 года 4 мес. назад | Торрент скачан:723 раза
Скачать  

02-08-2018 18:38 Попробуй подкати Скачать торрент  

Попробуй подкати / Tout le monde debout

Год выпуска: 2018
Страна: Франция, Бельгия
Жанр: мелодрама, комедия

Продолжительность: 01:47:34
Перевод: Дублированный [iTunes]
Режиссер: Франк Дюбоск
В ролях:

Франк Дюбоск (Jocelyn), Александра Лами (Florence), Эльза Зильберштейн (Marie), Жерар Дармон (Max), Каролин Англад (Julie), Лоран Бато (Julien), Клод Брассёр (Papa Jocelyn), Франсуа-Ксавье Демезон (Curé de Lourdes), Летиция Белличчини (La fille saoule), Кристоф Канар (Jacques), Сэм Шемуль (Fils de Fred et de Coco), Мишель Шесно
Описание:
Успешный бизнесмен и эгоистичный мачо пускает в ход все свои уловки, чтобы соблазнять девушек. Но однажды он сам оказывается в крайне щекотливой ситуации.
Рейтинг:

Качество: BDRip 1080p
Формат: MKV
Видео: AVC, 1920x808 (2.40:1), 9065 kbps, 24 fps, 0,243 bpp
Аудио №1: русский / AC3 / 5.1 / 48 kHz / 384 kbps / |DUB|
Аудио №2: французский / DTS / 5.1 / 48 kHz / 1509 kbps / 24 bit
Навигация по главам: есть
General
Unique ID : 206560790818745499059397745837049875137 (0x9B662946DAE7B78380205F9C1F2B8AC1)
Complete name : F:\Tout.Le.Monde.Debout.2018.BDRip.1080p.Ulysse.mkv
Format : Matroska
Format version : Version 4 / Version 2
File size : 8.23 GiB
Duration : 1 h 47 min
Overall bit rate : 11.0 Mb/s
Encoded date : UTC 2018-08-02 13:02:50
Writing application : mkvmerge v7.3.0 ('Nouages') 64bit built on Oct 22 2014 18:53:34
Writing library : libebml v1.3.0 + libmatroska v1.4.1

Video
ID : 1
Format : AVC
Format/Info : Advanced Video Codec
Format profile : High@L4.1
Format settings, CABAC : Yes
Format settings, ReFrames : 5 frames
Codec ID : V_MPEG4/ISO/AVC
Duration : 1 h 47 min
Bit rate : 9 065 kb/s
Width : 1 920 pixels
Height : 808 pixels
Display aspect ratio : 2.40:1
Frame rate mode : Constant
Frame rate : 24.000 FPS
Color space : YUV
Chroma subsampling : 4:2:0
Bit depth : 8 bits
Scan type : Progressive
Bits/(Pixel*Frame) : 0.243
Stream size : 6.65 GiB (81%)
Writing library : x264 core 155 r2901 7d0ff22
Encoding settings : cabac=1 / ref=5 / deblock=1:0:0 / analyse=0x3:0x113 / me=umh / subme=8 / psy=1 / psy_rd=1.00:0.00 / mixed_ref=1 / me_range=16 / chroma_me=1 / trellis=1 / 8x8dct=1 / cqm=0 / deadzone=21,11 / fast_pskip=1 / chroma_qp_offset=-2 / threads=18 / lookahead_threads=3 / sliced_threads=0 / nr=0 / decimate=1 / interlaced=0 / bluray_compat=0 / constrained_intra=0 / bframes=3 / b_pyramid=2 / b_adapt=2 / b_bias=0 / direct=3 / weightb=1 / open_gop=0 / weightp=2 / keyint=240 / keyint_min=24 / scenecut=40 / intra_refresh=0 / rc_lookahead=50 / rc=2pass / mbtree=1 / bitrate=9065 / ratetol=1.0 / qcomp=0.60 / qpmin=0 / qpmax=69 / qpstep=4 / cplxblur=20.0 / qblur=0.5 / ip_ratio=1.40 / aq=1:1.00
Language : English
Default : Yes
Forced : No

Audio #1
ID : 2
Format : AC-3
Format/Info : Audio Coding 3
Mode extension : CM (complete main)
Format settings, Endianness : Big
Codec ID : A_AC3
Duration : 1 h 47 min
Bit rate mode : Constant
Bit rate : 384 kb/s
Channel(s) : 6 channels
Channel positions : Front: L C R, Side: L R, LFE
Sampling rate : 48.0 kHz
Frame rate : 31.250 FPS (1536 spf)
Compression mode : Lossy
Stream size : 295 MiB (4%)
Language : Russian
Default : Yes
Forced : Yes

Audio #2
ID : 3
Format : DTS
Format/Info : Digital Theater Systems
Mode : 16
Format settings, Endianness : Big
Codec ID : A_DTS
Duration : 1 h 47 min
Bit rate mode : Constant
Bit rate : 1 509 kb/s
Channel(s) : 6 channels
Channel positions : Front: L C R, Side: L R, LFE
Sampling rate : 48.0 kHz
Frame rate : 93.750 FPS (512 spf)
Bit depth : 24 bits
Compression mode : Lossy
Stream size : 1.13 GiB (14%)
Title : French DTS 1509kbps
Language : French
Default : No
Forced : No

Menu
00:00:00.000 : en:00:00:00.000
00:09:54.625 : en:00:09:54.625
00:17:21.083 : en:00:17:21.083
00:27:31.208 : en:00:27:31.208
00:35:17.333 : en:00:35:17.333
00:44:15.792 : en:00:44:15.792
00:55:18.208 : en:00:55:18.208
01:04:36.458 : en:01:04:36.458
01:12:49.792 : en:01:12:49.792
01:21:02.208 : en:01:21:02.208
01:29:16.125 : en:01:29:16.125
01:36:07.750 : en:01:36:07.750
pb.wtf



Скачать Попробуй подкати через торрент http://i102.fastpic.ru/big/2018/0802/21/f125a197b2ae3df718ae78d501fc4021.png Скачать фильм Попробуй подкати через торрент бесплантно в хорошем качестве Описание: Успешный бизнесмен и эгоистичный мачо пускает в ход все свои уловки, чтобы соблазнять девушек. Но однажды он сам оказывается в ... 9.7 10 13
Info! Золотая раздача, скачанное не засчитывается.
Торрент: Зарегистрирован [2018-08-02 18:38] · скачан: 723 раз
Статус: T временная
Размер: 8.23 GB
Как cкачать? Как скачать Попробуй подкати через торрент | qTorrent

% Раздел Тема Автор DL S | L
Фильмы 2018 [DVDrip, WEB-DLRip, HDrip] (DUB, MVO) [ 1.41 GB ] Попробуй подкати / Tout le monde debout [2018 BDRip] - Twi7ter Скачать
1 | 0
Фильмы 2018 [DVDrip, WEB-DLRip, HDrip] (DUB, MVO) [ 2.05 GB ] Попробуй подкати / Tout le monde debout [2018 Мело HDRip] bober100 Скачать
1 | 0
Фильмы 2018 [DVDrip, WEB-DLRip, HDrip] (DUB, MVO) [ 1.62 GB ] Попробуй подкати / Tout le monde debout [2018 Мело HDRip-AVC] bober100 Скачать
1 | 0
Фильмы 2018 [DVDrip, WEB-DLRip, HDrip] (DUB, MVO) [ 715 MB ] Попробуй подкати / Tout le monde debout [2018 WEB-DLRip ""] coc900 Скачать
1 | 0
Фильмы (Blu-ray, BD-Remux, HDDVD) [ 27.03 GB ] Попробуй подкати / Tout le monde debout [2018 Мело BD Remux 1080p] bober100 Скачать
1 | 0
Фильмы 2018 [DVDrip, WEB-DLRip, HDrip] (DUB, MVO) [ 1.37 GB ] Попробуй подкати / Tout le monde debout [2018 Мело HDRip] bober100 Скачать
2 | 0
Фильмы (WEB-DL 720p, 1080p) [ 3.72 GB ] Попробуй подкати / Tout le monde debout [2018 Мело WEB-DL 1080p] bober100 Скачать
1 | 0

28-11-2019 20:33  

Отключить всю рекламу на сайте

10-08-2018 07:26 Попробуй подкати Скачать торрент  

-Lexx-, nnpb.wtf



13-08-2018 12:38 Попробуй подкати Скачать торрент  

очень приятный фильмpb.wtf



    Дорогой пользователь! Огромная просьба, поблагодарите релизера, оцените раздачу и оставьте свои комментарий, если Вы скачали Попробуй подкати через торрент бесплатно! Внесите свою лепту в развитие PiratBit!
    Комментировать посты могут только пользователи прошедшие не сложную регистрацию
    Показать сообщения:    

    Попробуй подкати через торрент
    Скачать бесплатно Попробуй подкати
    Попробуй подкати скачать торрент
    Попробуй подкати смотреть онлайн
    Cкачать фильм Попробуй подкати бесплатно
    Попробуй подкати скачать торрент в хорошем качестве
    Попробуй подкати смотреть онлайн бесплатно в хорошем качестве


    Вы не можете начинать темы
    Вы не можете отвечать на сообщения
    Вы не можете редактировать свои сообщения
    Вы не можете удалять свои сообщения
    Вы не можете голосовать в опросах
    Вы не можете прикреплять файлы к сообщениям
    Вы можете скачивать файлы