Достать ножи: Стеклянная луковица

MVO

Добыча

Дубляж

Уэнсдэй

1 сезон

Тор

Дубляж

13 клиническая

1 сезон

Жестокая ночь

MVO

Одни из нас

1 сезон

Deluxe

pack

Рекомендуем

30

Пиратка

ВАЖНО

ВАЖНО

Ghostwire

Пиратка

jed

RePack

nioh2

RePack

RDR2

RePack

NEED FOR SPEED™ PAYBACK

RePack

скачать торрент

Кинопоиск HD

Острые козырьки 6 сезон

6 сезон

FAR CRY 6

RePack

скачать торрент

Лицензия

скачать торрент

MVO

1

1 сезон

скачать торрент

1 сезон

скачать торрент

Лицензия

  

Лиззи Борден взяла топор / Lizzie Borden Took an Ax (Ник Гомез) [2014, триллер, драма, криминал, WEB-DL 1080p] MVO [iTunes]

Лиззи Борден взяла топор через торрент pb.wtf

Размер: 7.91 GB | Добавлен: 4 года 5 мес. назад | Торрент скачан:56 раз
Смотреть онлайн | Скачать | Поддержите нас   

02-08-2018 20:12 Лиззи Борден взяла топор Скачать торрент  

Лиззи Борден взяла топорLizzie Borden Took an Ax



Страна: США
Студия: Sony Pictures Television
Жанр: триллер, драма, криминал
Год выпуска: 2014
Продолжительность: 01:27:03
Перевод: Профессиональный (многоголосый закадровый) | iTunes
Субтитры: английские [Full, SDH]

Режиссер: Ник Гомез / Nick Gomez

В ролях:

Кристина Риччи (Lizzie Borden), Клеа ДюВалл (Emma Borden), Грегг Генри (Hosea Knowlton), Стивен МакХэтти (Andrew Borden), Шон Дойл (Marshall Hilliard), Сара Ботсфорд (Abby Morse Borden), Hannah Anderson (Bridget Sullivan), Андреа Рунге (Alice Russell), Билл Кэмпбелл (Andrew Jennings), Jason Chemij (Soldier Mike), Emmy DeOliveira (Girl #2, озвучка), Эндрю Гиллис (Judge Mason)
Описание:

Фильм основан на реальных событиях, произошедших в 1892 году, когда молодая женщина по имени Лиззи Борден была обвинена в жестоком убийстве своего отца и мачехи. Но на состоявшимся вскоре суде, с нее были полностью сняты все обвинения.

rating семпл семпл

Качество: WEB-DL 1080p AMZN_ABM
Формат: MKV

Видео: MPEG-4 AVC / NTSC 16:9 / 1920x1080 (1,78:1) / 11986 kbps / 23,976 fps / 0.241 bit/pixel / [email protected]
Аудио 1: Russian | Dolby Digital Audio / 5.1 Ch / 48 kHz / 384 kbps / 16-bit | MVO | iTunes
Аудио 2: English | Dolby Digital Audio + / 5.1 Ch / 48 kHz / 640 kbps / 16-bit | Original

Код:

Общее
Уникальный идентификатор                 : 189582119856155382913409834287073864241 (0x8EA0302AEF641EDC2533C90F03342A31)
Полное имя                               : S:\AMZN\Lizzie Borden Took an Ax.2014.1080p.AMZN.WEB-DL.x264.Rus.Eng.DD.5.1.mkv
Формат                                   : Matroska
Версия формата                           : Version 4 / Version 2
Размер файла                             : 7,91 Гбайт
Продолжительность                        : 1 ч. 27 м.
Режим общего битрейта                    : Переменный
Общий поток                              : 13,0 Мбит/сек
Дата кодирования                         : UTC 2018-08-02 17:34:43
Программа кодирования                    : mkvmerge v25.0.0 ('Prog Noir') 64-bit
Библиотека кодирования                   : libebml v1.3.6 + libmatroska v1.4.9

Видео
Идентификатор                            : 1
Формат                                   : AVC
Формат/Информация                        : Advanced Video Codec
Профиль формата                          : [email protected]
Настройки формата                        : CABAC / 4 Ref Frames
Параметр CABAC формата                   : Да
Параметр RefFrames формата               : 4 кадра
Идентификатор кодека                     : V_MPEG4/ISO/AVC
Продолжительность                        : 1 ч. 27 м.
Вид битрейта                             : Переменный
Битрейт                                  : 12,0 Мбит/сек
Максимальный битрейт                     : 15,0 Мбит/сек
Ширина                                   : 1920 пикселей
Высота                                   : 1080 пикселей
Соотношение сторон                       : 16:9
Режим частоты кадров                     : Постоянный
Частота кадров                           : 23,976 (24000/1001) кадра/сек
Цветовое пространство                    : YUV
Субдискретизация насыщенности            : 4:2:0
Битовая глубина                          : 8 бит
Тип развёртки                            : Прогрессивная
Бит/(Пиксели*Кадры)                      : 0.241
Размер потока                            : 7,29 Гбайт (92%)
Заголовок                                : AMZN
Библиотека кодирования                   : x264 core 148 r2623 d5b2374
Настройки программы                      : cabac=1 / ref=4 / deblock=1:-1:-1 / analyse=0x3:0x133 / me=umh / subme=9 / psy=1 / psy_rd=1.00:0.15 / mixed_ref=1 / me_range=24 / chroma_me=1 / trellis=2 / 8x8dct=1 / cqm=0 / deadzone=21,11 / fast_pskip=1 / chroma_qp_offset=-3 / threads=34 / lookahead_threads=5 / sliced_threads=0 / nr=150 / decimate=1 / interlaced=0 / bluray_compat=0 / constrained_intra=0 / bframes=8 / b_pyramid=2 / b_adapt=2 / b_bias=0 / direct=3 / weightb=1 / open_gop=0 / weightp=2 / keyint=120 / keyint_min=61 / scenecut=0 / intra_refresh=0 / rc_lookahead=120 / rc=crf / mbtree=1 / crf=18.0 / qcomp=0.60 / qpmin=0 / qpmax=69 / qpstep=4 / vbv_maxrate=15000 / vbv_bufsize=31250 / crf_max=0.0 / nal_hrd=vbr / filler=0 / ip_ratio=1.40 / aq=3:1.00
Язык                                     : English
Default                                  : Да
Forced                                   : Нет
Цветовой диапазон                        : Limited
Основные цвета                           : BT.709
Характеристики трансфера                 : BT.709
Коэффициенты матрицы                     : BT.709

Аудио #1
Идентификатор                            : 2
Формат                                   : AC-3
Формат/Информация                        : Audio Coding 3
Идентификатор кодека                     : A_AC3
Продолжительность                        : 1 ч. 27 м.
Вид битрейта                             : Постоянный
Битрейт                                  : 384 Кбит/сек
Каналы                                   : 6 каналов
Расположение каналов                     : Front: L C R, Side: L R, LFE
Частота                                  : 48,0 КГц
Частота кадров                           : 31,250 кадров/сек (1536 SPF)
Битовая глубина                          : 16 бит
Метод сжатия                             : С потерями
Размер потока                            : 239 Мбайт (3%)
Заголовок                                : iTunes | MVO
Язык                                     : Russian
ServiceKind/String                       : Complete Main
Default                                  : Да
Forced                                   : Нет

Аудио #2
Идентификатор                            : 3
Формат                                   : E-AC-3
Формат/Информация                        : Enhanced Audio Coding 3
Идентификатор кодека                     : A_EAC3
Продолжительность                        : 1 ч. 27 м.
Вид битрейта                             : Постоянный
Битрейт                                  : 640 Кбит/сек
Каналы                                   : 6 каналов
Расположение каналов                     : Front: L C R, Side: L R, LFE
Частота                                  : 48,0 КГц
Частота кадров                           : 187,500 кадров/сек (256 SPF)
Метод сжатия                             : С потерями
Размер потока                            : 399 Мбайт (5%)
Заголовок                                : Original
Язык                                     : English
ServiceKind/String                       : Complete Main
Default                                  : Нет
Forced                                   : Нет

Текст #1
Идентификатор                            : 4
Формат                                   : UTF-8
Идентификатор кодека                     : S_TEXT/UTF8
Идентификатор кодека/Информация          : UTF-8 Plain Text
Продолжительность                        : 1 ч. 24 м.
Битрейт                                  : 60 бит/сек
ElementCount                             : 1129
Размер потока                            : 37,5 Кбайт (0%)
Заголовок                                : Full
Язык                                     : English
Default                                  : Нет
Forced                                   : Нет

Текст #2
Идентификатор                            : 5
Формат                                   : UTF-8
Идентификатор кодека                     : S_TEXT/UTF8
Идентификатор кодека/Информация          : UTF-8 Plain Text
Продолжительность                        : 1 ч. 25 м.
Битрейт                                  : 62 бит/сек
ElementCount                             : 1215
Размер потока                            : 38,8 Кбайт (0%)
Заголовок                                : SDH
Язык                                     : English
Default                                  : Нет
Forced                                   : Нет

Меню
00:00:00.000                             : en:Chapter 01
00:03:00.889                             : en:Chapter 02
00:08:34.388                             : en:Chapter 03
00:12:13.649                             : en:Chapter 04
00:18:00.204                             : en:Chapter 05
00:22:00.319                             : en:Chapter 06
00:26:08.608                             : en:Chapter 07
00:31:26.467                             : en:Chapter 08
00:35:06.354                             : en:Chapter 09
00:38:19.380                             : en:Chapter 10
00:41:19.018                             : en:Chapter 11
00:44:28.248                             : en:Chapter 12
00:48:11.096                             : en:Chapter 13
00:52:24.975                             : en:Chapter 14
00:57:49.048                             : en:Chapter 15
01:01:57.755                             : en:Chapter 16
01:07:55.071                             : en:Chapter 17
01:12:12.786                             : en:Chapter 18
01:17:56.296                             : en:Chapter 19
01:21:34.806                             : en:Chapter 20

скриншот   скриншот   скриншот   скриншот   скриншот  

скриншот   скриншот   скриншот   скриншот   скриншот  



Скачать Лиззи Борден взяла топор через торрент https://c.radikal.ru/c23/1808/41/9b3e711c7836.jpg Скачать, смотреть онлайн Лиззи Борден взяла топор бесплантно в хорошем качестве Описание: Фильм основан на реальных событиях, произошедших в 1892 году, когда молодая женщина по имени Лиззи Борден была обвинена в ... 10 10 5
Торрент: Зарегистрирован [2018-08-02 20:12] · скачан: 56 раз
Статус: √ проверено
Размер: 7.91 GB
Как cкачать? Как скачать Лиззи Борден взяла топор через торрент | UTorrent

% Раздел Тема Автор DL S | L
Видео для КПК и Смартфонов [ 447 MB ] Лиззи Борден взяла топор / Lizzie Borden Took an Ax | iTunes | DLRip MVO кэп Скачать
1 | 0
Фильмы 2014 [DVDrip, WEB-DLRip, HDrip] [ 1.44 GB ] Лиззи Борден взяла топор / Lizzie Borden Took an Ax | iTunes | DLRip, Многоголосый, закадровый GEKADOL Скачать
1 | 0

28-11-2019 20:33  


Отключить вcю реклaмy на сайте, в т.ч. и в плеере онлайн просмотра!

    Дорогой пользователь! Огромная просьба, поблагодарите релизера, оцените раздачу и оставьте свои комментарий, если Вы скачали Лиззи Борден взяла топор через торрент бесплатно!!
    Комментировать посты могут только пользователи прошедшие не сложную регистрацию
    Показать сообщения:    


    Лиззи Борден взяла топор через торрент
    Скачать бесплатно Лиззи Борден взяла топор
    Лиззи Борден взяла топор скачать торрент
    Лиззи Борден взяла топор смотреть онлайн
    Cкачать фильм Лиззи Борден взяла топор бесплатно
    Лиззи Борден взяла топор скачать торрент в хорошем качестве
    Лиззи Борден взяла топор смотреть онлайн бесплатно в хорошем качестве
    Вы не можете начинать темы
    Вы не можете отвечать на сообщения
    Вы не можете редактировать свои сообщения
    Вы не можете удалять свои сообщения
    Вы не можете голосовать в опросах
    Вы не можете прикреплять файлы к сообщениям
    Вы можете скачивать файлы
    Лиззи Борден взяла топор / Lizzie Borden Took an Ax [2014, триллер, драма, криминал, WEB-DL 1080p] MVO [iTunes] смотреть онлайн, скачать торрент picoco.icu