новый адрес
Мега распродажа FORZA HORIZON 4 ULTIMATE+ВСЕ DLC+ОНЛАЙН всего за 499р. 349 руб. (супер цена). Внимание количество ограничено!!!

iTunes

1+1

iTunes

мы

iTunes

1

iTunes

Чернобыль

iTunes

Ральф против интернета

Лицензия

ПШазам

Лицензия

Оно 2

Лицензия

30
pack

ВАЖНО

!!Акция!!

Alien_RageХит недели

RePack

Resident Evil 21

ИГРА 18+

pack

RePack

jed

!!Акция!!

Alien_Rage

RePack

fifa19

RePack

Assassins Creed: Odyssey

RePack

NEED FOR SPEED™ PAYBACK

3 сезон

9 сезон

Бесстыжие 9 сезон

Все сериалы

все сериалы на PB.wtf

RePack

FAR CRY 5
Ребята, катастрофически не хватает 1900р. для оплаты серверов за Октябрь (всвязи с блокировками трафик упал в 3 раза), 1-2р., выручайте.
  

Алые паруса (Александр Птушко) [1961, СССР, фэнтези, драма, мелодрама, DVDRip от AVP Studio] pb.wtf

Алые паруса через торрент pb.wtf

Размер: 745 MB | Добавлен: 1 год 3 мес. назад | Торрент скачан:14 раз
Скачать  

03-08-2018 07:27 Алые паруса Скачать торрент  

Алые паруса
Страна: СССР
Производство: Мосфильм

Жанр: фэнтези, драма, мелодрама
Год выпуска: 1961
Продолжительность: 01:22:59

Перевод: Не требуется
Cубтитры: нет
Оригинальная аудиодорожка: русский

Режиссер: Александр Птушко

В ролях:
Анастасия Вертинская, Василий Лановой, Елена Черемшанова, Саша Лупенко, Иван Переверзев, Сергей Мартинсон, Николай Волков (старший), Сергей Ромоданов, Олег Анофриев, Павел Волков, Александр Хвыля, Григорий Шпигель, Анна Орочко, Антонина Кончакова, Павел Массальский, Зоя Фёдорова, Наталия Орлова, Эммануил Геллер, Алексей Алексеев, Иван Мочалов...
Об актёрах подробней

Описание:
История, придуманная замечательным писателем Александром Грином, похожа на сказку. Романтические мечты юной и прекрасной Ассоль волшебным образом сбываются. Конечно, такое могло случиться только в сказке... И в жизни.

Источник: DVD9 R5
Качество видео: DVDRip
Формат видео: AVI

Видео: 704х288 (2,40:1), 25 fps, XviD ~ 798 kbps avg, 0.157 bit/pixel
Аудио: 48 kHz, Dolby Digital AC3 5.1, 448 kbps

Раздача от:
Общее
Полное имя : Alye.parusa.1961.DVDRip_[New-team]_by_AVP_Studio.avi
Формат : AVI
Формат/Информация : Audio Video Interleave
Размер файла : 745 Мбайт
Продолжительность : 1 ч. 22 м.
Общий поток : 1255 Кбит/сек
Программа кодирования : VirtualDubMod 1.5.10.3 | www.virtualdub-fr.org || (build 2550/release)
Библиотека кодирования : VirtualDubMod build 2550/release

Видео
Идентификатор : 0
Формат : MPEG-4 Visual
Профиль формата : Advanced Simple@L5
Настройки формата : BVOP1 / Custom Matrix
Параметр BVOP формата : 1
Параметр QPel формата : Нет
Параметр GMC формата : Без точки перехода
Параметр матрицы формата : Выборочная
Идентификатор кодека : XVID
Идентификатор кодека/Подсказка : XviD
Продолжительность : 1 ч. 22 м.
Битрейт : 798 Кбит/сек
Ширина : 704 пикселя
Высота : 288 пикселей
Соотношение сторон : 2,40:1
Частота кадров : 25,000 кадров/сек
Цветовое пространство : YUV
Субдискретизация насыщенности : 4:2:0
Битовая глубина : 8 бит
Тип развёртки : Прогрессивная
Метод сжатия : С потерями
Бит/(Пиксели*Кадры) : 0.157
Размер потока : 473 Мбайт (64%)
Библиотека кодирования : XviD 73

Аудио
Идентификатор : 1
Формат : AC-3
Формат/Информация : Audio Coding 3
Идентификатор кодека : 2000
Продолжительность : 1 ч. 22 м.
Вид битрейта : Постоянный
Битрейт : 448 Кбит/сек
Каналы : 6 каналов
Расположение каналов : Front: L C R, Side: L R, LFE
Частота : 48,0 КГц
Частота кадров : 31,250 кадров/сек (1536 SPF)
Битовая глубина : 16 бит
Метод сжатия : С потерями
Размер потока : 266 Мбайт (36%)
Выравнивание : Разделение по промежуткам
Продолжительность промежутка : 40 мс. (1,00 видеокадр)
Время предзагрузки промежутка : 500 мс
pb.wtf



Скачать Алые паруса через торрент http://picplus.ru/img/1808/03/7acce61e.png Скачать фильм Алые паруса через торрент бесплантно в хорошем качестве Описание:История, придуманная замечательным писателем Александром Грином, похожа на сказку. Романтические мечты юной и прекрасной Ассоль ... 10 10 1
Торрент: Зарегистрирован [2018-08-03 07:27] · скачан: 14 раз
Статус: √ проверено
Размер: 745 MB
Как cкачать? Как скачать Алые паруса через торрент | qTorrent

% Раздел Тема Автор DL S | L
Кино СССР [ 1.09 GB ] Алые паруса [1961 СССР DVDRip-AVC от AVP Studio] AVP Studio Скачать
1 | 0
Развлекательные телепередачи и шоу, приколы и юмор [ 2.99 GB ] Алые паруса [2018 Концерт Пиротехническое шоу WEBRip 720p] -Lexx- Скачать
1 | 0
Детская литература [ 189 MB ] Александр Грин - Алые паруса [Каледин Пётр 2015 128 kbps MP3] bober100 Скачать
2 | 0
Кино СССР [ 1.47 GB ] Алые паруса [1961 СССР DVDRip] Notturno Скачать
1 | 0
Развлекательные телепередачи и шоу, приколы и юмор [ 2.35 GB ] Алые паруса 2011 [2011 Концерт Пиротехническое шоу SATRip] L_E_X Скачать
1 | 0
Наши сериалы [ 1.76 GB ] Правдивая история об Алых парусах [2010 Мело SATRip] -=Cherry=- Скачать
1 | 0


>> Регистрируемся здесь <<






Отзывы и комментарии о схеме читаем и пишем здесь: ---> Отзывы и комментарии о схеме

Новые благодарочки в телеграм довольных пользователей:
скриншот   скриншот   скриншот   скриншот   скриншот
    Дорогой пользователь! Огромная просьба, поблагодарите релизера, оцените раздачу и оставьте свои комментарий, если Вы скачали Алые паруса через торрент бесплатно! Внесите свою лепту в развитие PiratBit!
    Комментировать посты могут только пользователи прошедшие не сложную регистрацию
    Показать сообщения:    

    Алые паруса через торрент
    Скачать бесплатно Алые паруса
    Алые паруса скачать торрент
    Алые паруса смотреть онлайн
    Cкачать фильм Алые паруса бесплатно
    Алые паруса скачать торрент в хорошем качестве
    Алые паруса смотреть онлайн бесплатно в хорошем качестве


    Вы не можете начинать темы
    Вы не можете отвечать на сообщения
    Вы не можете редактировать свои сообщения
    Вы не можете удалять свои сообщения
    Вы не можете голосовать в опросах
    Вы не можете прикреплять файлы к сообщениям
    Вы можете скачивать файлы