Доктор Стрэндж

Лицензия

Добыча

Дубляж

Дом дракона

1 сезон

Тор

Дубляж

В эфире

Дубляж

Там, где раки поют

MVO

Властелин колец

1 сезон

Deluxe

pack

Рекомендуем

30

Пиратка

ВАЖНО

ВАЖНО

Ghostwire

Пиратка

jed

RePack

nioh2

RePack

RDR2

RePack

NEED FOR SPEED™ PAYBACK

RePack

скачать торрент

Кинопоиск HD

Острые козырьки 6 сезон

6 сезон

FAR CRY 6

RePack

скачать торрент

Лицензия

скачать торрент

MVO

1

1 сезон

скачать торрент

1 сезон

скачать торрент

Лицензия

  

Ночная смена (Марюс Вайсберг) [2018, комедия, WEB-DLRip] [iTunes]

Ночная смена через торрент pb.wtf

Раздают: 1 [ 0 KB/s ]
Размер: 1.46 GB | Добавлен: 4 года 3 мес. назад | Торрент скачан:773 раза
Смотреть онлайн | Скачать   

03-08-2018 13:35 Ночная смена Скачать торрент  

Ночная смена
Год выпуска: 2018
Страна: Россия
Жанр: комедия
Продолжительность: 01:31:55
Перевод: Не требуется | iTunes
Субтитры: отсутствуют

Режиссер: Марюс Вайсберг

rating

В ролях:

Владимир Яглыч, Павел Деревянко, Ксения Теплова, Наталья Бардо, Игорь Жижикин, Валентина Мазунина, Елена Валюшкина, Сергей Глушко, Эмин Агаларов, Наталья Бочкарева

Описание:

Макс теряет работу на заводе и, чтобы прокормить семью, вынужден согласиться на неожиданное предложение бывшей одноклассницы - поработать стриптизером. Скрывая новую профессию от жены Ани, Макс попадает в массу удивительных и нелепых ситуаций и в итоге теряет доверие любимой женщины. Стремясь вернуть мир и гармонию в семью, он обращается за помощью к коллегам из стрип-клуба, что и вовсе приводит к веселому хаосу...

Качество: WEB-DLRip
Формат: AVI

Видео: Xvid, 720x400, ~1875 kbps, 25,000 fps
Аудио: русский, AC3, 5.1 ch, 48 kHz, 384 kbps | iTunes
скриншот  скриншот  скриншот  скриншот  скриншот  

General
Полное имя : F:TorrentNochnayaSmena.avi
Формат : AVI
Формат/Информация : Audio Video Interleave
Профиль формата : OpenDML
Размер файла : 1.46 GiB
Продолжительность : 1 h 31 min
Общий поток : 2 271 kb/s
Программа кодирования : XviD4PSP 6.0 / 54.27.101

Video
Идентификатор : 0
Формат : MPEG-4 Visual
Профиль формата : Advanced [email protected]
Настройки формата : BVOP2 / Custom Matrix
Параметр BVOP формата : 2
Параметр QPel формата : No
Параметр GMC формата : No warppoints
Параметр матрицы формата : Custom
Идентификатор кодека : XVID
Идентификатор кодека/Подсказка : XviD
Продолжительность : 1 h 31 min
Битрейт : 1 875 kb/s
Ширина : 720 pixels
Высота : 400 pixels
Соотношение сторон : 16:9
Частота кадров : 25.000 FPS
Цветовое пространство : YUV
Субдискретизация насыщенности : 4:2:0
Битовая глубина : 8 bits
Тип развёртки : Progressive
Метод сжатия : Lossy
Бит/(Пиксели*Кадры) : 0.260
Размер потока : 1.20 GiB (83%)
Библиотека кодирования : XviD 67

Audio
Идентификатор : 1
Формат : AC-3
Формат/Информация : Audio Coding 3
Идентификатор кодека : 2000
Продолжительность : 1 h 31 min
Вид битрейта : Constant
Битрейт : 384 kb/s
Каналы : 6 channels
Расположение каналов : Front: L C R, Side: L R, LFE
Частота : 48.0 kHz
Частота кадров : 31.250 FPS (1536 SPF)
Битовая глубина : 16 bits
Метод сжатия : Lossy
Размер потока : 252 MiB (17%)
Выравнивание : Aligned on interleaves
Продолжительность промежутка : 32 ms (0.80 video frame)




Скачать Ночная смена через торрент https://d.radikal.ru/d03/1806/7c/4e2c7ff20a8f.jpg Скачать, смотреть онлайн Ночная смена бесплантно в хорошем качестве Описание: Макс теряет работу на заводе и, чтобы прокормить семью, вынужден согласиться на неожиданное предложение бывшей одноклассницы - ... 9.3 10 21
Торрент: Зарегистрирован [2018-08-03 13:35] · скачан: 773 раз
Статус: √ проверено
Размер: 1.46 GB
Как cкачать? Как скачать Ночная смена через торрент | UTorrent

% Раздел Тема Автор DL S | L
Наши фильмы 2018-2019 [ 1.46 GB ] Ночная смена | Лицензия | DLRip Twi7ter Скачать
1 | 0
Наши фильмы 2018-2019 [ 1.4 GB ] Ночная смена | iTunes | DLRip-AVC White Smoke Скачать
2 | 0
Наши фильмы (HD, WEB-DL 720p, 1080p) [ 3.15 GB ] Ночная смена | iTunes | 720p bober100 Скачать
2 | 0
Наши фильмы (HD, WEB-DL 720p, 1080p) [ 3.56 GB ] Ночная смена | iTunes | 1080p bober100 Скачать
1 | 0
Наши фильмы 2018-2019 [ 1.46 GB ] Ночная смена | iTunes | DLRip-AVC bober100 Скачать
1 | 0
Наши фильмы 2018-2019 [ 746 MB ] Ночная смена | iTunes | DLRip bober100 Скачать
1 | 0

28-11-2019 20:33  


Отключить вcю реклaмy на сайте, в т.ч. и в плеере онлайн просмотра!

    Дорогой пользователь! Огромная просьба, поблагодарите релизера, оцените раздачу и оставьте свои комментарий, если Вы скачали Ночная смена через торрент бесплатно!!
    Комментировать посты могут только пользователи прошедшие не сложную регистрацию
    Показать сообщения:    


    Ночная смена через торрент
    Скачать бесплатно Ночная смена
    Ночная смена скачать торрент
    Ночная смена смотреть онлайн
    Cкачать фильм Ночная смена бесплатно
    Ночная смена скачать торрент в хорошем качестве
    Ночная смена смотреть онлайн бесплатно в хорошем качестве
    Вы не можете начинать темы
    Вы не можете отвечать на сообщения
    Вы не можете редактировать свои сообщения
    Вы не можете удалять свои сообщения
    Вы не можете голосовать в опросах
    Вы не можете прикреплять файлы к сообщениям
    Вы можете скачивать файлы
    Ночная смена [2018, комедия, WEB-DLRip] [iTunes] смотреть онлайн, скачать торрент picoco.icu