Ссылка на приватное зеркало нашего сайта всего за 1$. Внимание количество ограничено!!!

2 сезон

iTunes

iTunes

1

iTunes

iTunes

iTunes

WEBRip

iTunes

30
pack

Новость дня

ВАЖНО

!!Акция!!

Alien_RageХит недели

RePack

Horizon Zero Dawn

ИГРА 18+

pack

RePack

jed

!!Акция!!

Alien_Rage

RePack

fifa19

RePack

Assassins Creed: Odyssey

RePack

NEED FOR SPEED™ PAYBACK

4 сезон

9 сезон

Бесстыжие 9 сезон

Все сериалы

все сериалы на PB.wtf

RePack

FAR CRY 5
  

Сага о чудовище. Сумерки / Wildling (Фридрих Боэм) [2018, Ужасы, фэнтези, BD Remux 1080p] DUB [iTunes] pb.wtf

Сага о чудовище. Сумерки через торрент pb.wtf

Размер: 17.59 GB | Добавлен: 2 года 1 мес. назад | Торрент скачан:48 раз
Скачать  

03-08-2018 15:32 Сага о чудовище. Сумерки Скачать торрент  

Сага о чудовище. Сумерки / Wildling
Год выпуска: 2018
Страна: США
Жанр: Ужасы, фэнтези
Продолжительность: 01:32:21
Перевод: Дублированный | iTunes
Субтитры: Нет

Режиссер: Фридрих Боэм

rating

В ролях:

Лив Тайлер, Брэд Дуриф, Бел Паули, Джеймс ЛеГрос, Майк Фейст, Коллин Келли-Сорделет, Kelly Lamor Wilson, Джулия Русацки, Трой Раптэш, Шарлотта Уббен, Фрэнк Дил, Патрик М. Уолш

Описание:

Сюжет посвящён истории 16-летней девушка Анны, с самых малых пор проводящей всё время в четырёх стенах запертого дома, поскольку опасается за свою жизнь: снаружи рыскает ужасающий монстр, пожирающий детей. Когда же девушка узнаёт, что вся эта история является не больше чем выдумкой её воспитателя, она решается выйти из дома. Однако сразу после этого начинают происходить страшные и необъяснимые события.

Качество: BD Remux 1080p
Формат: MKV

Видео: MPEG-2 AVC, 1920x1080, 25.0 Mbit/s, 23.976 fps
Аудио#1: 48 kHz, AC3, 5.1, 384 Kbps | iTunes | RUS |
Аудио#2: 48 kHz, DTS-HD MA, 5.1, 1871 Kbps | Оригинал | ENG |
скриншот  скриншот  скриншот  скриншот  скриншот  

General
Unique ID : 156103735951884126023152337805098296726 (0x75707C6738DF999CD1D0D11A5F7B2596)
Complete name : D:Video111Wildling.2018.BDREMUX.1080p.ExKinoRay.mkv
Format : Matroska
Format version : Version 4 / Version 2
File size : 17.6 GiB
Duration : 1 h 32 min
Overall bit rate mode : Variable
Overall bit rate : 27.3 Mb/s
Movie name : Wildling 2018 from ExKinoRay
Encoded date : UTC 2018-08-03 15:01:07
Writing application : mkvmerge v23.0.0 ('The Bride Said No') 64-bit
Writing library : libebml v1.3.6 + libmatroska v1.4.9

Video
ID : 1
Format : MPEG Video
Format version : Version 2
Format profile : Main@High
Format settings : BVOP
Format settings, BVOP : Yes
Format settings, Matrix : Default
Format settings, GOP : M=3, N=12
Codec ID : V_MPEG2
Codec ID/Info : MPEG 1 or 2 Video
Duration : 1 h 32 min
Bit rate mode : Variable
Bit rate : 25.0 Mb/s
Maximum bit rate : 40.0 Mb/s
Width : 1 920 pixels
Height : 1 080 pixels
Display aspect ratio : 16:9
Frame rate mode : Constant
Frame rate : 23.976 (24000/1001) FPS
Color space : YUV
Chroma subsampling : 4:2:0
Bit depth : 8 bits
Scan type : Progressive
Compression mode : Lossy
Bits/(Pixel*Frame) : 0.503
Time code of first frame : 00:00:00:00
Time code source : Group of pictures header
GOP, Open/Closed : Closed
Stream size : 16.1 GiB (92%)
Language : English
Default : Yes
Forced : No

Audio #1
ID : 2
Format : AC-3
Format/Info : Audio Coding 3
Codec ID : A_AC3
Duration : 1 h 32 min
Bit rate mode : Constant
Bit rate : 384 kb/s
Channel(s) : 6 channels
Channel positions : Front: L C R, Side: L R, LFE
Sampling rate : 48.0 kHz
Frame rate : 31.250 FPS (1536 SPF)
Bit depth : 16 bits
Compression mode : Lossy
Stream size : 254 MiB (1%)
Title : iTunes
Language : Russian
Service kind : Complete Main
Default : Yes
Forced : Yes

Audio #2
ID : 3
Format : DTS
Format/Info : Digital Theater Systems
Format profile : MA / Core
Codec ID : A_DTS
Duration : 1 h 32 min
Bit rate mode : Variable / Constant
Bit rate : 1 871 kb/s / 1 509 kb/s
Channel(s) : 6 channels
Channel positions : Front: L C R, Side: L R, LFE
Sampling rate : 48.0 kHz
Frame rate : 93.750 FPS (512 SPF)
Bit depth : 16 bits
Compression mode : Lossless / Lossy
Stream size : 1.21 GiB (7%)
Title : Original
Language : English
Default : No
Forced : No

Menu
00:00:00.000 : en:00:00:00.000
00:13:22.802 : en:00:13:22.802
00:20:37.737 : en:00:20:37.737
00:31:45.904 : en:00:31:45.904
00:44:54.692 : en:00:44:54.692
01:00:28.625 : en:01:00:28.625
01:11:42.298 : en:01:11:42.298
01:23:40.516 : en:01:23:40.516

pb.wtf



Скачать Сага о чудовище. Сумерки через торрент http://a.radikal.ru/a06/1807/e3/47af72719a53.png Скачать фильм Сага о чудовище. Сумерки через торрент бесплантно в хорошем качестве Описание: Сюжет посвящён истории 16-летней девушка Анны, с самых малых пор проводящей всё время в четырёх стенах запертого дома, поскольку ... 10 10 5
Info! Золотая раздача, скачанное не засчитывается.
Торрент: Зарегистрирован [2018-08-03 15:32] · скачан: 48 раз
Статус: √ проверено
Размер: 17.59 GB
Как cкачать? Как скачать Сага о чудовище. Сумерки через торрент | qTorrent

% Раздел Тема Автор DL S | L
Фильмы 2018 [DVDrip, WEB-DLRip, HDrip] (DUB, MVO) [ 1.42 GB ] Сага о чудовище. Сумерки / Wildling [2018 BDRip] - Twi7ter Скачать
1 | 0
Фильмы 2018 [DVDrip, WEB-DLRip, HDrip] (DUB, MVO) [ 1.53 GB ] Сага о чудовище. Сумерки / Wildling [2018 BDRip-AVC] bober100 Скачать
1 | 0
Фильмы 2018 [DVDrip, WEB-DLRip, HDrip] (DUB, MVO) [ 745 MB ] Сага о чудовище. Сумерки / Wildling [2018 BDRip] bober100 Скачать
1 | 0
Фильмы 2018 [DVDrip, WEB-DLRip, HDrip] (DUB, MVO) [ 1.42 GB ] Сага о чудовище. Сумерки / Wildling [2018 BDRip] bober100 Скачать
1 | 0
Фильмы (WEB-DL 720p, 1080p) [ 2.85 GB ] Сага о чудовище. Сумерки / Wildling [2018 WEB-DL 720p] bober100 Скачать
2 | 0
Фильмы (WEB-DL 720p, 1080p) [ 4.7 GB ] Сага о чудовище. Сумерки / Wildling [2018 WEB-DL 1080p] bober100 Скачать
1 | 0

28-11-2019 20:33  

Отключить всю рекламу на сайте

    Дорогой пользователь! Огромная просьба, поблагодарите релизера, оцените раздачу и оставьте свои комментарий, если Вы скачали Сага о чудовище. Сумерки через торрент бесплатно! Внесите свою лепту в развитие PiratBit!
    Комментировать посты могут только пользователи прошедшие не сложную регистрацию
    Показать сообщения:    

    Сага о чудовище. Сумерки через торрент
    Скачать бесплатно Сага о чудовище. Сумерки
    Сага о чудовище. Сумерки скачать торрент
    Сага о чудовище. Сумерки смотреть онлайн
    Cкачать фильм Сага о чудовище. Сумерки бесплатно
    Сага о чудовище. Сумерки скачать торрент в хорошем качестве
    Сага о чудовище. Сумерки смотреть онлайн бесплатно в хорошем качестве


    Вы не можете начинать темы
    Вы не можете отвечать на сообщения
    Вы не можете редактировать свои сообщения
    Вы не можете удалять свои сообщения
    Вы не можете голосовать в опросах
    Вы не можете прикреплять файлы к сообщениям
    Вы можете скачивать файлы