Ссылка на приватное зеркало нашего сайта всего за 1$. Внимание количество ограничено!!!

2 сезон

iTunes

1 сезон

1

iTunes

iTunes

iTunes

1 сезон

RePack

30

ИГРА 18+

pack

ВАЖНО

!!Акция!!

Alien_RageХит недели

RePack

MK11
pack

Забери бонус

RePack

jed

!!Акция!!

Alien_Rage

RePack

fifa19

RePack

Assassins Creed: Odyssey

RePack

NEED FOR SPEED™ PAYBACK

4 сезон

9 сезон

Бесстыжие 9 сезон

Все сериалы

все сериалы на PB.wtf

RePack

FAR CRY 5
  

Алхимик. Эликсир Фауста / Сезон: 1 / Серии: 1-12 из 12 (Александр Муратов (II) [2015, Детектив, мелодрама, мистика, HDTVRip] pb.wtf

Алхимик. Эликсир Фауста через торрент pb.wtf

Раздают: 1 [ 0 KB/s ]
Размер: 8.69 GB | Добавлен: 2 года 2 мес. назад | Торрент скачан:86 раз
Скачать  

03-08-2018 17:34 Алхимик. Эликсир Фауста Скачать торрент  

Алхимик. Эликсир Фауста
Год выпуска: 2015
Страна: Россия
Жанр: Детектив, мелодрама, мистика
Продолжительность: ~ 00:50:00
Субтитры: отсутствуют

Режиссер: Александр Муратов (II)



В ролях:

Игорь Петренко, Светлана Иванова, Виктор Раков, Евгения Добровольская, Юлия Рутберг, Павел Баршак, Фёдор Лавров, Владимир Ерёмин, Сергей Степанченко, Игорь Ясулович, Юрий Беляев, Андрей Ильин (I), Борис Щербаков, Артём Ткаченко, Владимир Коренев, Павел Меленчук, Александр Сирин, Елена Радевич, Татьяна Абрамова, Алексей Шейнин, Вячеслав Жолобов, Артём Фадеев, Владимир Гостюхин, Кирилл Жандаров

Описание:

Захватывающая история про алхимиков, чудодейственные эликсиры, тайные общества и вечную тягу читателей и зрителей к непознанному. Используя познания в органической химии, свойствах известных минералов и особую энергетику мистических элементов, они из года в год пытались приготовить эликсир бессмертия и научиться превращать в золото любой металл.

Качество: HDTVRip
Формат: AVI

Видео: XviD, ~ 1800 Кбит/с, 720x400
Аудио: AC3, 2 ch, 192 Кбит/с
скриншот  скриншот  скриншот  скриншот  

Общее
Полное имя : D:\Alhimik.HDTVRip.GeneralFilm\01.Alhimik.HDTVRip.GeneralFilm.avi
Формат : AVI
Формат/Информация : Audio Video Interleave
Размер файла : 762 Мбайт
Продолжительность : 53 м. 10 с.
Общий поток : 2003 Кбит/сек

Видео
Идентификатор : 0
Формат : MPEG-4 Visual
Профиль формата : Advanced Simple@L5
Параметр BVOP формата : 1
Параметр QPel формата : Нет
Параметр GMC формата : Без точки перехода
Параметр матрицы формата : Выборочная
Идентификатор кодека : XVID
Идентификатор кодека/Подсказка : XviD
Продолжительность : 53 м. 10 с.
Битрейт : 1800 Кбит/сек
Ширина : 720 пикселей
Высота : 400 пикселей
Соотношение сторон : 16:9
Частота кадров : 25,000 кадров/сек
Цветовое пространство : YUV
Субдискретизация насыщенности : 4:2:0
Битовая глубина : 8 бит
Тип развёртки : Прогрессивная
Метод сжатия : С потерями
Бит/(Пиксели*Кадры) : 0.250
Размер потока : 684 Мбайт (90%)
Библиотека кодирования : XviD 73

Аудио
Идентификатор : 1
Формат : AC-3
Формат/Информация : Audio Coding 3
Расширение режима : CM (complete main)
Параметр Endianness формата : Big
Идентификатор кодека : 2000
Продолжительность : 53 м. 10 с.
Вид битрейта : Постоянный
Битрейт : 192 Кбит/сек
Каналы : 2 канала
Расположение каналов : Front: L R
Частота : 48,0 КГц
Частота кадров : 31,250 кадров/сек (1536 spf)
Метод сжатия : С потерями
Размер потока : 73,0 Мбайт (10%)
Выравнивание : Соединение по промежуткам
Продолжительность промежутка : 32 мс. (0,80 видеокадр)

pb.wtf



Скачать Алхимик. Эликсир Фауста через торрент http://a.radikal.ru/a02/1807/ee/eb8340c2e819.jpg Скачать фильм Алхимик. Эликсир Фауста через торрент бесплантно в хорошем качестве Описание: Захватывающая история про алхимиков, чудодейственные эликсиры, тайные общества и вечную тягу читателей и зрителей к непознанному. ... 10 10 2
Info! Золотая раздача, скачанное не засчитывается.
Торрент: Зарегистрирован [2018-08-03 17:34] · скачан: 86 раз
Статус: √ проверено
Размер: 8.69 GB
Как cкачать? Как скачать Алхимик. Эликсир Фауста через торрент | qTorrent

% Раздел Тема Автор DL S | L
Наши сериалы [ 28.28 GB ] Алхимик. Эликсир Фауста / Сезон: 1 / Серии: 1-12 из 12 [2015 HDTV 1080i] bober100 Скачать
1 | 0
Наши сериалы [ 16.04 GB ] Алхимик. Эликсир Фауста / Сезон: 1 / Серии: 1-12 из 12 [2015 HDTVRip 720p] bober100 Скачать
1 | 0
Наши сериалы [ 7.84 GB ] Алхимик. Эликсир Фауста / Сезон: 1 / Серии: 1-12 из 12 [2015 SATRip-AVC] bober100 Скачать
1 | 0

28-11-2019 20:33  

Отключить всю рекламу на сайте

    Дорогой пользователь! Огромная просьба, поблагодарите релизера, оцените раздачу и оставьте свои комментарий, если Вы скачали Алхимик. Эликсир Фауста через торрент бесплатно! Внесите свою лепту в развитие PiratBit!
    Комментировать посты могут только пользователи прошедшие не сложную регистрацию
    Показать сообщения:    

    Алхимик. Эликсир Фауста через торрент
    Скачать бесплатно Алхимик. Эликсир Фауста
    Алхимик. Эликсир Фауста скачать торрент
    Алхимик. Эликсир Фауста смотреть онлайн
    Cкачать фильм Алхимик. Эликсир Фауста бесплатно
    Алхимик. Эликсир Фауста скачать торрент в хорошем качестве
    Алхимик. Эликсир Фауста смотреть онлайн бесплатно в хорошем качестве


    Вы не можете начинать темы
    Вы не можете отвечать на сообщения
    Вы не можете редактировать свои сообщения
    Вы не можете удалять свои сообщения
    Вы не можете голосовать в опросах
    Вы не можете прикреплять файлы к сообщениям
    Вы можете скачивать файлы