Всегда рабочее зеркало без VPN и Proxy просто перед .vidak.icu напиши любое слово или цифру, Пример http://zm24.vidak.icu

MVO

Лицензия

1 сезон

1

1 сезон

iTunes

1 сезон

13

1 сезон

Deluxe

pack

Рекомендуем

Repack

30

ВАЖНО

RePack

MK11

RePack

jed

RePack

fifa19

RePack

RDR2

RePack

NEED FOR SPEED™ PAYBACK

Кинопоиск HD

6 сезон

 Острые козырьки 6 сезон

Все сериалы

все сериалы на PB.wtf

RePack

FAR CRY 5
  
Magnet ссылка

Закат цивилизации / Extinction (Бен Янг) [2018, фантастика, триллер, WEB-DL 1080p] MVO [MuzOboz] pb.wtf

Закат цивилизации через торрент pb.wtf

Размер: 8.35 GB | Добавлен: 3 года 11 мес. назад | Торрент скачан:530 раз
Смотреть онлайн Закат цивилизации | Скачать    Ребята, помогите собрать деньги на оплату серверов!!!

03-08-2018 17:42 Закат цивилизации Скачать торрент  

Закат цивилизации / Extinction«Мы были здесь не первыми»
Год выпуска: 2018
Страна: США
Жанр: фантастика, триллер
Продолжительность: 01:34:52
Перевод: Любительский (многоголосый) | MuzOboz
Субтитры (вшитые softsub SRT):

#1 - Русские Форсированные (включены по умолчанию) [Ash61]
#2 - Русские Полные [Netflix]
#3 - English Full
#4 - English SDH

Режиссер: Бен Янг

rating

В ролях:

Майкл Пенья, Майк Колтер, Лиззи Каплан, Израэль Бруссар, Эмма Бут, Том Райли, Лилли Аспелл, Лекс Шрэпнел, Эрика Тремблэй, Амелия Крауч

Описание:

Питер видит один и тот же кошмарный сон, в котором он постоянно теряет семью. Однажды сон почти сбывается, когда на Землю прибывают инопланетяне, сеющие смерть, разрушение и ужас. Пытаясь спасти семью, Питер обнаруживает в себе неожиданный источник сил.

Качество: WEB-DL 1080p
Формат: MKV

Видео: AVC / 1920х802p / 23,976 fps / 11.1 Mbps
Аудио#1: Русский / AC3 / 48 KHz / 5.1 ch / 640 Kbps (MVO - MuzOboz) [монтаж - Ash61]
Аудио#2: Английский / E-AC3 / 48 KHz / 5.1 ch / 640 Kbps (Original)
скриншот  скриншот  скриншот  скриншот  скриншот  

General
Unique ID : 229226357590092077707978266094446730107 (0xAC7363FF2F3FBAC29E15F8137A9A5B7B)
Complete name : D:Extinction(2018)[NF]WEB-DLRip.1080p(Rus-MVO[Ash61]).mkv
Format : Matroska
Format version : Version 2
File size : 8.35 GiB
Duration : 1h 34mn
Overall bit rate : 12.6 Mbps
Movie name : Закат цивилизации / Extinction (2018)
Encoded date : UTC 2018-08-03 15:02:43
Writing application : mkvmerge v5.8.0 ('No Sleep / Pillow') built on Sep 2 2012 15:37:04
Writing library : libebml v1.2.3 + libmatroska v1.3.0
Cover : Yes
Attachments : cover.jpg

Video
ID : 1
Format : AVC
Format/Info : Advanced Video Codec
Format profile : [email protected]
Format settings, CABAC : Yes
Format settings, ReFrames : 5 frames
Codec ID : V_MPEG4/ISO/AVC
Duration : 1h 34mn
Bit rate : 11.1 Mbps
Width : 1 920 pixels
Height : 802 pixels
Display aspect ratio : 2.40:1
Frame rate mode : Constant
Frame rate : 23.976 (24000/1001) fps
Color space : YUV
Chroma subsampling : 4:2:0
Bit depth : 8 bits
Scan type : Progressive
Bits/(Pixel*Frame) : 0.300
Stream size : 7.34 GiB (88%)
Title : WEB-DL-Rip
Writing library : x264 core 155 r2901+1 (master: 7d0ff22 / tmod: cd02c8e) [X86_64]
Encoding settings : cabac=1 / ref=5 / deblock=1:-3:-3 / analyse=0x3:0x133 / me=umh / subme=11 / psy=1 / psy_rd=1.05:0.15 / mixed_ref=1 / me_range=48 / chroma_me=1 / trellis=2 / 8x8dct=1 / cqm=0 / deadzone=6,6 / fast_pskip=0 / chroma_qp_offset=-3 / threads=25 / lookahead_threads=6 / sliced_threads=0 / nr=0 / decimate=0 / interlaced=0 / bluray_compat=0 / constrained_intra=0 / bframes=10 / b_pyramid=2 / b_adapt=2 / b_bias=0 / direct=3 / weightb=1 / open_gop=0 / weightp=2 / keyint=250 / keyint_min=23 / scenecut=40 / intra_refresh=0 / rc=crf / mbtree=0 / crf=17.0 / qcomp=0.70 / qpmin=0 / qpmax=69 / qpstep=4 / ip_ratio=1.25 / pb_ratio=1.20 / aq=3:0.65
Language : English
Default : Yes
Forced : No

Audio #1
ID : 2
Format : AC-3
Format/Info : Audio Coding 3
Mode extension : CM (complete main)
Format settings, Endianness : Big
Codec ID : A_AC3
Duration : 1h 34mn
Bit rate mode : Constant
Bit rate : 640 Kbps
Channel(s) : 6 channels
Channel positions : Front: L C R, Side: L R, LFE
Sampling rate : 48.0 KHz
Frame rate : 31.250 fps (1536 spf)
Compression mode : Lossy
Stream size : 434 MiB (5%)
Title : MVO - MuzOboz [монтаж - Ash61]
Language : Russian
Default : Yes
Forced : No

Audio #2
ID : 3
Format : E-AC-3
Format/Info : Audio Coding 3
Format settings, Endianness : Big
Codec ID : A_EAC3
Duration : 1h 34mn
Bit rate mode : Constant
Bit rate : 640 Kbps
Channel(s) : 6 channels
Channel positions : Front: L C R, Side: L R, LFE
Sampling rate : 48.0 KHz
Frame rate : 187.500 fps (256 spf)
Compression mode : Lossy
Stream size : 434 MiB (5%)
Title : Original
Language : English
Default : No
Forced : No

Text #1
ID : 4
Format : UTF-8
Codec ID : S_TEXT/UTF8
Codec ID/Info : UTF-8 Plain Text
Title : Форсированные (для MVO MuzOboz) [Ash61]
Language : Russian
Default : Yes
Forced : No

Text #2
ID : 5
Format : UTF-8
Codec ID : S_TEXT/UTF8
Codec ID/Info : UTF-8 Plain Text
Title : Полные
Language : Russian
Default : No
Forced : No

Text #3
ID : 6
Format : UTF-8
Codec ID : S_TEXT/UTF8
Codec ID/Info : UTF-8 Plain Text
Title : Full
Language : English
Default : No
Forced : No

Text #4
ID : 7
Format : UTF-8
Codec ID : S_TEXT/UTF8
Codec ID/Info : UTF-8 Plain Text
Title : SDH
Language : English
Default : No
Forced : No

pb.wtf



Скачать Закат цивилизации через торрент https://img11.lostpic.net/2018/07/27/76520437fdbebef5a4e9162366a5e77d.png Скачать, смотреть онлайн Закат цивилизации бесплантно в хорошем качестве Описание: Питер видит один и тот же кошмарный сон, в котором он постоянно теряет семью. Однажды сон почти сбывается, когда на Землю ... 9.6 10 9
Торрент: Зарегистрирован [2018-08-03 17:42] · скачан: 530 раз
Статус: T временная
Размер: 8.35 GB
Как cкачать? Как скачать Закат цивилизации через торрент | UTorrent

% Раздел Тема Автор DL S | L
T Фильмы 2018 [DVDrip, WEB-DLRip, HDrip] (DUB, MVO) [ 1.76 GB ] Закат цивилизации / Extinction [2018 WEB-DLRip-AVC] 2xMVO [MuzOboz HDRezka Studio] bober100 Скачать
2 | 0
T Ultra HD (UHD: 2K, 4K, 8K) — видео сверхвысокой чёткости [ 13.88 GB ] Закат цивилизации / Extinction [2018 UHD WEBRip 2160p] 2xMVO sheker187 Скачать
1 | 0
T Фильмы 2018 [DVDrip, WEB-DLRip, HDrip] (DUB, MVO) [ 1.59 GB ] Закат цивилизации / Extinction [2018 WEB-DLRip] 2xMVO [MuzOboz HDRezka Studio] bober100 Скачать
1 | 0
R.G. Resident & PiratVoice - Фильмы, Видео [ 1.46 GB ] Закат цивилизации / Extinction [2018 WEBRip от R.G. Resident] [Sub Rus] -Lexx- Скачать
1 | 0
Фильмы без перевода [ 4.26 GB ] Закат цивилизации / Extinction [2018 WEBRip 1080p] [Sub Rus] -Lexx- Скачать
1 | 0

28-11-2019 20:33  

Отключить всю рекламу на сайте

03-08-2018 19:28 Закат цивилизации Скачать торрент  

неплохой сюжет...pb.wtf



22-08-2018 17:23 Закат цивилизации Скачать торрент  

Фантастика тут в основном на словах, а на деле, какая-то плаксивая мелодрама, весь фильм дети плачут и плачут, их спасают и спасают. Спецэффектов почти нет, немного постреляли из пестиков-лазеров каких-то)) Короче лажа!pb.wtf



16-09-2018 16:01 Закат цивилизации Скачать торрент  

Один из лучших фантастических фильмов за последнее время...pb.wtf



    Дорогой пользователь! Огромная просьба, поблагодарите релизера, оцените раздачу и оставьте свои комментарий, если Вы скачали Закат цивилизации через торрент бесплатно!
    Комментировать посты могут только пользователи прошедшие не сложную регистрацию
    Показать сообщения:    

    Закат цивилизации через торрент
    Скачать бесплатно Закат цивилизации
    Закат цивилизации скачать торрент
    Закат цивилизации смотреть онлайн
    Cкачать фильм Закат цивилизации бесплатно
    Закат цивилизации скачать торрент в хорошем качестве
    Закат цивилизации смотреть онлайн бесплатно в хорошем качестве


    Вы не можете начинать темы
    Вы не можете отвечать на сообщения
    Вы не можете редактировать свои сообщения
    Вы не можете удалять свои сообщения
    Вы не можете голосовать в опросах
    Вы не можете прикреплять файлы к сообщениям
    Вы можете скачивать файлы