Ссылка на приватное зеркало нашего сайта всего за 1$. Внимание количество ограничено!!!

2 сезон

iTunes

1 сезон

1

2 сезон

2 сезон

iTunes

1 сезон

RePack

30

Ultimate

ВАЖНО

ИГРА 18+

pack

RePack

MK11
pack

Забери бонус

RePack

jed

!!Акция!!

Alien_Rage

RePack

fifa19

RePack

Assassins Creed: Odyssey

RePack

NEED FOR SPEED™ PAYBACK

4 сезон

9 сезон

Бесстыжие 9 сезон

Все сериалы

все сериалы на PB.wtf

RePack

FAR CRY 5
  

Мстители: Война бесконечности / Avengers: Infinity War (Энтони Руссо, Джо Руссо) [2018, фантастика, фэнтези, боевик, приключения, WEBRip 1080p] [Open Matte] [Dub] pb.wtf

Мстители: Война бесконечности через торрент pb.wtf

Раздают: 1 [ 0 KB/s ]
Размер: 6.34 GB | Добавлен: 2 года 3 мес. назад | Торрент скачан:1510 раз
Скачать  

03-08-2018 18:44 Мстители: Война бесконечности Скачать торрент  

Мстители: Война бесконечности / Avengers: Infinity War«An entire universe. Once and for all»
Год выхода: 2018
Выпущено: США / Marvel Studios
Жанр: фантастика, фэнтези, боевик, приключения
Продолжительность: 02:23:28
Перевод: Профессиональный (полное дублирование)
Субтитры: Русские (полные)

Режиссер: Энтони Руссо / Anthony Russo, Джо Руссо / Joe Russo

В ролях: Роберт Дауни мл., Крис Хемсворт, Марк Руффало, Крис Эванс, Скарлетт Йоханссон, Дон Чидл, Бенедикт Камбербэтч, Том Холланд (II), Чэдвик Боузмэн, Зои Салдана

О фильме: Пока Мстители и их союзники продолжают защищать мир от различных опасностей, с которыми не смог бы справиться один супергерой, новая угроза возникает из космоса: Танос. Межгалактический тиран преследует цель собрать все шесть Камней Бесконечности — артефакты невероятной силы, с помощью которых можно менять реальность по своему желанию. Всё, с чем Мстители сталкивались ранее, вело к этому моменту — судьба Земли никогда ещё не была столь неопределённой.



Доп. информация:
- исходная вебка выкачана с онлайн кинотеатра ivi, обработке не подвергалась. (спасибо maksnew)
- Open Matte версия имеет иное наполнение кадра нежели BD, подробное сравнение ниже под спойлером.
- выход данного фильма в IMAX не планируется.

Качество: WEBRip 1080p [ivi]
Контейнер: MKV
Видео: H.264, 1920x1080, 25 000 fps, 8bit, 5 120 kb/s
Аудио #1: Russian: AAC, 5.1, 48 kHz, ~512 kbps |Дубляж, ivi|
Аудио #2: English: AAC, 5.1, 48 kHz, ~512 kbps |Original, ivi|
Субтитры: Русские (полные) (.srt)
скриншот  скриншот  скриншот  
скриншот  скриншот  скриншот  скриншот  
Complete name : Avengers.Infinity.War.2018.Open.Matte.WEB-DL.1080p.mkv
Format : Matroska
Format version : Version 4 / Version 2
File size : 6.34 GiB
Duration : 2 h 23 min
Overall bit rate : 6 323 kb/s
Movie name : Avengers.Infinity.War.2018.Open.Matte.WEB-DL.1080p
Encoded date : UTC 2018-08-03 13:51:07
Writing application : mkvmerge v8.3.0 ('Over the Horizon') 64bit
Writing library : libebml v1.3.1 + libmatroska v1.4.2

Video
ID : 1
Format : AVC
Format/Info : Advanced Video Codec
Format profile : High@L4
Format settings : CABAC / 4 Ref Frames
Format settings, CABAC : Yes
Format settings, ReFrames : 4 frames
Codec ID : V_MPEG4/ISO/AVC
Duration : 2 h 23 min
Bit rate : 5 120 kb/s
Width : 1 920 pixels
Height : 1 080 pixels
Display aspect ratio : 16:9
Frame rate mode : Constant
Frame rate : 25.000 FPS
Color space : YUV
Chroma subsampling : 4:2:0
Bit depth : 8 bits
Scan type : Progressive
Bits/(Pixel*Frame) : 0.099
Stream size : 5.31 GiB (84%)
Writing library : x264 core 142
Encoding settings : cabac=1 / ref=3 / deblock=1:0:0 / analyse=0x3:0x113 / me=hex / subme=7 / psy=1 / psy_rd=1.00:0.00 / mixed_ref=1 / me_range=16 / chroma_me=1 / trellis=1 / 8x8dct=1 / cqm=0 / deadzone=21,11 / fast_pskip=1 / chroma_qp_offset=-2 / threads=84 / lookahead_threads=8 / sliced_threads=0 / nr=0 / decimate=1 / interlaced=0 / bluray_compat=0 / constrained_intra=0 / bframes=6 / b_pyramid=2 / b_adapt=1 / b_bias=0 / direct=1 / weightb=1 / open_gop=0 / weightp=2 / keyint=50 / keyint_min=26 / scenecut=0 / intra_refresh=0 / rc_lookahead=40 / rc=2pass / mbtree=1 / bitrate=5120 / ratetol=1.0 / qcomp=0.60 / qpmin=0 / qpmax=69 / qpstep=4 / cplxblur=20.0 / qblur=0.5 / vbv_maxrate=7680 / vbv_bufsize=20480 / nal_hrd=none / filler=0 / ip_ratio=1.40 / aq=1:1.00
Language : Russian
Default : Yes
Forced : No

Audio #1
ID : 2
Format : AAC
Format/Info : Advanced Audio Codec
Format profile : LC
Codec ID : A_AAC-2
Duration : 2 h 23 min
Bit rate : 512 kb/s
Channel(s) : 6 channels
Channel positions : Front: L C R, Side: L R, LFE
Sampling rate : 48.0 kHz
Frame rate : 46.875 FPS (1024 SPF)
Compression mode : Lossy
Stream size : 525 MiB (8%)
Title : Дубляж [ivi]
Language : Russian
Default : Yes
Forced : No

Audio #2
ID : 3
Format : AAC
Format/Info : Advanced Audio Codec
Format profile : LC
Codec ID : A_AAC-2
Duration : 2 h 23 min
Bit rate : 512 kb/s
Channel(s) : 6 channels
Channel positions : Front: L C R, Side: L R, LFE
Sampling rate : 48.0 kHz
Frame rate : 46.875 FPS (1024 SPF)
Compression mode : Lossy
Stream size : 525 MiB (8%)
Title : Original [ivi]
Language : English
Default : No
Forced : No

Text
ID : 4
Format : UTF-8
Codec ID : S_TEXT/UTF8
Codec ID/Info : UTF-8 Plain Text
Duration : 2 h 22 min
Bit rate : 66 b/s
Count of elements : 1597
Stream size : 70.0 KiB (0%)
Language : Russian
Default : No
Forced : No
pb.wtf



Скачать Мстители: Война бесконечности через торрент http://i6.imageban.ru/out/2018/08/03/3618015615a3b2a0a9d6001e04bf4ff5.png Скачать фильм Мстители: Война бесконечности через торрент бесплантно в хорошем качестве О фильме: Пока Мстители и их союзники продолжают защищать мир от различных опасностей, с которыми не смог бы справиться один супергерой, ... 9.6 10 34
Info! Золотая раздача, скачанное не засчитывается.
Торрент: Зарегистрирован [2018-08-03 18:44] · скачан: 1 510 раз
Статус: √ проверено
Размер: 6.34 GB
Как cкачать? Как скачать Мстители: Война бесконечности через торрент | qTorrent

% Раздел Тема Автор DL S | L
Фильмы (HD 720p, 1080p) (48-60 fps) [ 5.8 GB ] Мстители: Война бесконечности / Avengers: Infinity War [2018 WEB-DLRip 720p / 60 FPS ] от R.G. HD-Films slaventi-69 Скачать
1 | 0
Фильмы (HD 720p, 1080p) (48-60 fps) [ 12.02 GB ] Мстители: Война бесконечности / Avengers: Infinity War [2018 BDRip - HEVC 1080p 12 bit 60 FPS] - dd2d3 Скачать
2 | 0
Ultra HD (UHD: 2K, 4K, 8K) — видео сверхвысокой чёткости [ 59.35 GB ] Мстители: Война бесконечности / Avengers: Infinity War [2018 UHD BDRemux 2160p] DUB [] + AVO sheker187 Скачать
3 | 0
3D Фильмы [ 12.46 GB ] Мстители: Война бесконечности 3Д / Avengers: Infinity War 3D [2018 BDRip 1080p] [Half OverUnder / Вертикальная анаморфная стереопара] DUB [] bober100 Скачать
1 | 0
Фильмы [HD 720p, 1080p] (Хороший звук DUB, MVO) [ 7.57 GB ] Мстители: Война бесконечности / Avengers: Infinity War [2018 BDRip 1080p HEVC ()] Мичман37 Скачать
2 | 0
3D Фильмы [ 8.68 GB ] Мстители: Война бесконечности в 3D / Avengers: Infinity War in 3D [2018 BDRip 1080p ] Анаглиф slaventi-69 Скачать
1 | 0
Ultra HD (UHD: 2K, 4K, 8K) — видео сверхвысокой чёткости [ 54.04 GB ] Мстители: Война бесконечности / Avengers: Infinity War [2018 UHD BDRemux 2160p] - [] sheker187 Скачать
1 | 0

28-11-2019 20:33  

Отключить всю рекламу на сайте

03-08-2018 19:19 Мстители: Война бесконечности Скачать торрент  

Топик был перенесен из форума Фильмы [HD 720p, 1080p] (Хороший звук DUB, MVO) в форум Фильмы (WEB-DL 720p, 1080p)


-Lexx-pb.wtf



26-09-2018 10:40 Мстители: Война бесконечности Скачать торрент  

а почему версия опенмеит меньше по времени на 5 минутpb.wtf



26-09-2018 14:29 Мстители: Война бесконечности Скачать торрент  

ikaff писал(а):

а почему версия опенмеит меньше по времени на 5 минут

она не меньше, просто разница в fps - тут 25 а в блюре 23.976.Подробнее про разницу fps можно загуглитьpb.wtf



    Дорогой пользователь! Огромная просьба, поблагодарите релизера, оцените раздачу и оставьте свои комментарий, если Вы скачали Мстители: Война бесконечности через торрент бесплатно! Внесите свою лепту в развитие PiratBit!
    Комментировать посты могут только пользователи прошедшие не сложную регистрацию
    Показать сообщения:    

    Мстители: Война бесконечности через торрент
    Скачать бесплатно Мстители: Война бесконечности
    Мстители: Война бесконечности скачать торрент
    Мстители: Война бесконечности смотреть онлайн
    Cкачать фильм Мстители: Война бесконечности бесплатно
    Мстители: Война бесконечности скачать торрент в хорошем качестве
    Мстители: Война бесконечности смотреть онлайн бесплатно в хорошем качестве


    Вы не можете начинать темы
    Вы не можете отвечать на сообщения
    Вы не можете редактировать свои сообщения
    Вы не можете удалять свои сообщения
    Вы не можете голосовать в опросах
    Вы не можете прикреплять файлы к сообщениям
    Вы можете скачивать файлы