Всегда рабочее зеркало без VPN и Proxy просто перед .vidak.icu напиши любое слово или цифру, Пример http://dahu.vidak.icu

MVO

Лицензия

1 сезон

1

1 сезон

iTunes

1 сезон

13

1 сезон

Deluxe

pack

Рекомендуем

Repack

30

ВАЖНО

RePack

MK11

RePack

jed

RePack

fifa19

RePack

RDR2

RePack

NEED FOR SPEED™ PAYBACK

Кинопоиск HD

6 сезон

 Острые козырьки 6 сезон

Все сериалы

все сериалы на PB.wtf

RePack

FAR CRY 5
  
Magnet ссылка

Закат цивилизации / Extinction (Бен Янг) [2018, фантастика, триллер, UHD WEBRip 2160p] 2xMVO pb.wtf

Закат цивилизации через торрент pb.wtf

Размер: 13.88 GB | Добавлен: 3 года 9 мес. назад | Торрент скачан:170 раз
Смотреть онлайн Закат цивилизации | Скачать    Ребята, помогите собрать деньги на оплату серверов!!!

04-08-2018 02:56 Закат цивилизации Скачать торрент  

Закат цивилизации / Extinction

Год выпуска: 2018
Страна: США
Жанр: фантастика, триллер
Продолжительность: 01:34:52
Перевод: Профессиональный многоголосый, любительский многоголосый
Субтитры: Русские, английские
Режиссер: Бен Янг
В ролях:

Майкл Пенья (Peter), Лиззи Каплан (Alice), Амелия Крауч (Hannah), Эрика Тремблэй (Lucy), Лекс Шрэпнел (Ray), Эмма Бут (Samantha), Лилли Аспелл (Megan), Майк Колтер (David), Израэль Бруссар (Miles), Сандра Телес (Wellness Center Woman), Том Райли (Wellness Center Patient Chris), Michael Absalom (Phil)
Описание:
Питер видит один и тот же кошмарный сон, в котором человечество подвергается атаке неизвестных пришельцев с превосходящими силами и технологиями. Когда эти видения начинают мешать повседневной жизни, Питер поддается на уговоры жены и начальника и посещает клинику сна. А там выясняется, что подобные видения приходят не к нему одному. Однажды настаёт тот ужасный день, когда сон сбывается, и на Землю прибывают инопланетяне, сеющие смерть, разрушение и ужас.
Рейтинг:

Качество: UHD WEBRip 2160p
Формат: MKV
Видео: HEVC, HDR, 19.0 Мбит/с, 3840x1604, 23.976 Кадр/с
Аудио 1: Русский / AC3 / 48 KHz / 5.1 ch / 640 Kbps (Профессиональный многоголосый | HDRezka Studio)
Аудио 2: Русский / AC3 / 48 KHz / 5.1 ch / 640 Kbps (MVO - MuzOboz) [монтаж - Ash61]
Аудио 3: Английский / E-AC3 / 48 KHz / 5.1 ch / 640 Kbps (Original)
Общее
Уникальный идентификатор : 187712214459825377783951573651456847230 (0x8D380EB6B793A7A8958E0064E630ED7E)
Полное имя : D:\Мои раздачи\Передел\Extinction.2018.Netflix.WEBRip.10bit.HEVC.HDR.4K.x265.Master5.mkv
Формат : Matroska
Версия формата : Version 4 / Version 2
Размер файла : 13,9 Гбайт
Продолжительность : 1 ч. 34 м.
Общий поток : 20,9 Мбит/сек
Название фильма : Extinction.2018.Netflix.WEBRip.10bit.HEVC.HDR.4K.x265.Master5
Дата кодирования : UTC 2018-08-27 06:53:08
Программа кодирования : mkvmerge v7.9.0 ('Birds') 64bit
Библиотека кодирования : libebml v1.3.1 + libmatroska v1.4.2
Обложка : Yes
Attachments : cover.jpg

Видео
Идентификатор : 1
Формат : HEVC
Формат/Информация : High Efficiency Video Coding
Коммерческое название : HDR10
Профиль формата : Main [email protected]@Main
Идентификатор кодека : V_MPEGH/ISO/HEVC
Продолжительность : 1 ч. 34 м.
Битрейт : 19,0 Мбит/сек
Ширина : 3840 пикселей
Высота : 1604 пикселя
Соотношение сторон : 2,40:1
Режим частоты кадров : Постоянный
Частота кадров : 23,976 (24000/1001) кадра/сек
Цветовое пространство : YUV
Субдискретизация насыщенности : 4:2:0
Битовая глубина : 10 бит
Бит/(Пиксели*Кадры) : 0.129
Размер потока : 12,6 Гбайт (91%)
Заголовок : Extinction.2018.Netflix.WEBRip.10bit.HEVC.HDR.4K.x265.Master5
Библиотека кодирования : x265 2.8+56-613074c6714f:[Windows][MSVC 1914][64 bit] 10bit
Настройки программы : cpuid=1111039 / frame-threads=4 / numa-pools=28 / wpp / no-pmode / no-pme / no-psnr / no-ssim / log-level=2 / input-csp=1 / input-res=3840x1604 / interlace=0 / total-frames=0 / level-idc=0 / high-tier=1 / uhd-bd=0 / ref=5 / no-allow-non-conformance / repeat-headers / annexb / no-aud / no-hrd / info / hash=0 / no-temporal-layers / open-gop / min-keyint=23 / keyint=250 / gop-lookahead=0 / bframes=8 / b-adapt=2 / b-pyramid / bframe-bias=0 / rc-lookahead=40 / lookahead-slices=0 / scenecut=40 / radl=0 / no-intra-refresh / ctu=64 / min-cu-size=8 / no-rect / no-amp / max-tu-size=32 / tu-inter-depth=3 / tu-intra-depth=3 / limit-tu=4 / rdoq-level=2 / dynamic-rd=0.00 / no-ssim-rd / signhide / no-tskip / nr-intra=0 / nr-inter=0 / no-constrained-intra / no-strong-intra-smoothing / max-merge=4 / limit-refs=1 / limit-modes / me=3 / subme=4 / merange=57 / temporal-mvp / weightp / weightb / no-analyze-src-pics / deblock=0:0 / sao / no-sao-non-deblock / rd=6 / no-early-skip / rskip / no-fast-intra / no-tskip-fast / no-cu-lossless / b-intra / no-splitrd-skip / rdpenalty=0 / psy-rd=2.00 / psy-rdoq=1.00 / no-rd-refine / no-lossless / cbqpoffs=0 / crqpoffs=0 / rc=crf / crf=12.0 / qcomp=0.60 / qpstep=4 / stats-write=0 / stats-read=0 / ipratio=1.40 / pbratio=1.30 / aq-mode=1 / aq-strength=1.00 / cutree / zone-count=0 / no-strict-cbr / qg-size=32 / no-rc-grain / qpmax=69 / qpmin=0 / no-const-vbv / sar=0 / overscan=0 / videoformat=5 / range=0 / colorprim=9 / transfer=16 / colormatrix=9 / chromaloc=0 / display-window=0 / master-display=G(13250,34500)B(7500,3000)R(34000,16000)WP(15635,16450)L(40000000,50) / max-cll=4128,1478 / min-luma=0 / max-luma=1023 / log2-max-poc-lsb=8 / vui-timing-info / vui-hrd-info / slices=1 / no-opt-qp-pps / no-opt-ref-list-length-pps / no-multi-pass-opt-rps / scenecut-bias=0.05 / no-opt-cu-delta-qp / no-aq-motion / hdr / hdr-opt / no-dhdr10-opt / no-idr-recovery-sei / analysis-reuse-level=5 / scale-factor=0 / refine-intra=0 / refine-inter=0 / refine-mv=0 / limit-sao / ctu-info=0 / no-lowpass-dct / refine-mv-type=0 / copy-pic=1 / max-ausize-factor=1.0 / no-dynamic-refine / no-single-sei
Default : Да
Forced : Нет
Цветовой диапазон : Limited
Основные цвета : BT.2020
Характеристики трансфера : PQ
Коэффициенты матрицы : BT.2020 non-constant
MasteringDisplay_ColorPrimaries : Display P3
MasteringDisplay_Luminance : min: 0.0050 cd/m2, max: 4000 cd/m2
MaxCLL : 4128 cd/m2
MaxFALL : 1478 cd/m2

Аудио #1
Идентификатор : 2
Формат : AC-3
Формат/Информация : Audio Coding 3
Идентификатор кодека : A_AC3
Продолжительность : 1 ч. 34 м.
Вид битрейта : Постоянный
Битрейт : 640 Кбит/сек
Каналы : 6 каналов
Расположение каналов : Front: L C R, Side: L R, LFE
Частота : 48,0 КГц
Частота кадров : 31,250 кадров/сек (1536 SPF)
Битовая глубина : 16 бит
Метод сжатия : С потерями
Размер потока : 434 Мбайт (3%)
Заголовок : MVO - HDrezka Studio bперемонтаж - KarasidiB
Язык : Russian
ServiceKind/String : Complete Main
Default : Да
Forced : Нет

Аудио #2
Идентификатор : 3
Формат : AC-3
Формат/Информация : Audio Coding 3
Идентификатор кодека : A_AC3
Продолжительность : 1 ч. 34 м.
Вид битрейта : Постоянный
Битрейт : 640 Кбит/сек
Каналы : 6 каналов
Расположение каналов : Front: L C R, Side: L R, LFE
Частота : 48,0 КГц
Частота кадров : 31,250 кадров/сек (1536 SPF)
Битовая глубина : 16 бит
Метод сжатия : С потерями
Размер потока : 434 Мбайт (3%)
Заголовок : MVO - MuzOboz bмонтаж - Ash61B
Язык : Russian
ServiceKind/String : Complete Main
Default : Нет
Forced : Нет

Аудио #3
Идентификатор : 4
Формат : E-AC-3
Формат/Информация : Enhanced Audio Coding 3
Идентификатор кодека : A_EAC3
Продолжительность : 1 ч. 34 м.
Вид битрейта : Постоянный
Битрейт : 640 Кбит/сек
Каналы : 6 каналов
Расположение каналов : Front: L C R, Side: L R, LFE
Частота : 48,0 КГц
Частота кадров : 187,500 кадров/сек (256 SPF)
Метод сжатия : С потерями
Размер потока : 434 Мбайт (3%)
Заголовок : Original
Язык : English
ServiceKind/String : Complete Main
Default : Нет
Forced : Нет

Текст #1
Идентификатор : 5
Формат : UTF-8
Идентификатор кодека : S_TEXT/UTF8
Идентификатор кодека/Информация : UTF-8 Plain Text
Продолжительность : 1 ч. 5 м.
Битрейт : 0 бит/сек
ElementCount : 5
Размер потока : 186 байт (0%)
Заголовок : Форсированные (для MVO HDrezka) bот Ash61B
Язык : Russian
Default : Да
Forced : Нет

Текст #2
Идентификатор : 6
Формат : UTF-8
Идентификатор кодека : S_TEXT/UTF8
Идентификатор кодека/Информация : UTF-8 Plain Text
Продолжительность : 1 ч. 5 м.
Битрейт : 0 бит/сек
ElementCount : 6
Размер потока : 179 байт (0%)
Заголовок : Форсированные (для MVO MuzOboz) bAsh61B
Язык : Russian
Default : Нет
Forced : Нет

Текст #3
Идентификатор : 7
Формат : UTF-8
Идентификатор кодека : S_TEXT/UTF8
Идентификатор кодека/Информация : UTF-8 Plain Text
Продолжительность : 1 ч. 33 м.
Битрейт : 47 бит/сек
ElementCount : 926
Размер потока : 32,6 Кбайт (0%)
Заголовок : Полные
Язык : Russian
Default : Нет
Forced : Нет

Текст #4
Идентификатор : 8
Формат : UTF-8
Идентификатор кодека : S_TEXT/UTF8
Идентификатор кодека/Информация : UTF-8 Plain Text
Продолжительность : 1 ч. 27 м.
Битрейт : 38 бит/сек
ElementCount : 926
Размер потока : 24,6 Кбайт (0%)
Заголовок : Full
Язык : English
Default : Нет
Forced : Нет

Текст #5
Идентификатор : 9
Формат : UTF-8
Идентификатор кодека : S_TEXT/UTF8
Идентификатор кодека/Информация : UTF-8 Plain Text
Продолжительность : 1 ч. 32 м.
Битрейт : 44 бит/сек
ElementCount : 1153
Размер потока : 30,5 Кбайт (0%)
Заголовок : SDH
Язык : English
Default : Нет
Forced : Нет
pb.wtf



Скачать Закат цивилизации через торрент https://a.radikal.ru/a14/1808/1a/dc31702abf1c.png Скачать, смотреть онлайн Закат цивилизации бесплантно в хорошем качестве Описание: Питер видит один и тот же кошмарный сон, в котором человечество подвергается атаке неизвестных пришельцев с превосходящими силами ... 9.1 10 10
Торрент: Зарегистрирован [2018-10-02 10:55] · скачан: 170 раз
Статус: T временная
Размер: 13.88 GB
Как cкачать? Как скачать Закат цивилизации через торрент | UTorrent

% Раздел Тема Автор DL S | L
T Фильмы 2018 [DVDrip, WEB-DLRip, HDrip] (DUB, MVO) [ 1.76 GB ] Закат цивилизации / Extinction [2018 WEB-DLRip-AVC] 2xMVO [MuzOboz HDRezka Studio] bober100 Скачать
2 | 0
T Фильмы 2018 [DVDrip, WEB-DLRip, HDrip] (DUB, MVO) [ 1.59 GB ] Закат цивилизации / Extinction [2018 WEB-DLRip] 2xMVO [MuzOboz HDRezka Studio] bober100 Скачать
1 | 0


Последний раз редактировалось: sheker187 (2018-10-02 10:56), всего редактировалось 3 раз(а)

28-11-2019 20:33  

Отключить всю рекламу на сайте

08-08-2018 08:37 Закат цивилизации Скачать торрент  

Релиз обновлён - добавлен перевод: (Профессиональный многоголосый HDRezka Studio)
Желающие, скачайте заново торрент-файл.
Приятного просмотра!
pb.wtf



02-10-2018 10:56 Закат цивилизации Скачать торрент  

Релиз обновлён - замена перевода: (Профессиональный многоголосый HDRezka Studio) Русский (AC3, 2 ch, 192 Кбит/с) на (AC3, 6 ch, 640 Кбит/с)
Желающие, скачайте заново торрент-файл.
Приятного просмотра!pb.wtf



    Дорогой пользователь! Огромная просьба, поблагодарите релизера, оцените раздачу и оставьте свои комментарий, если Вы скачали Закат цивилизации через торрент бесплатно!
    Комментировать посты могут только пользователи прошедшие не сложную регистрацию
    Показать сообщения:    

    Закат цивилизации через торрент
    Скачать бесплатно Закат цивилизации
    Закат цивилизации скачать торрент
    Закат цивилизации смотреть онлайн
    Cкачать фильм Закат цивилизации бесплатно
    Закат цивилизации скачать торрент в хорошем качестве
    Закат цивилизации смотреть онлайн бесплатно в хорошем качестве


    Вы не можете начинать темы
    Вы не можете отвечать на сообщения
    Вы не можете редактировать свои сообщения
    Вы не можете удалять свои сообщения
    Вы не можете голосовать в опросах
    Вы не можете прикреплять файлы к сообщениям
    Вы можете скачивать файлы