Всегда рабочее зеркало без VPN и Proxy просто перед .vidak.icu напиши любое слово или цифру, Пример http://pr9l.vidak.icu

MVO

MVO

1 сезон

1

1 сезон

iTunes

1 сезон

13

1 сезон

Deluxe

pack

Рекомендуем

Repack

30

ВАЖНО

RePack

MK11

RePack

jed

RePack

fifa19

RePack

RDR2

RePack

NEED FOR SPEED™ PAYBACK

Кинопоиск HD

6 сезон

 Острые козырьки 6 сезон

Все сериалы

все сериалы на PB.wtf

RePack

FAR CRY 5
  
Magnet ссылка

Бросок кобры (Дилогия) / G.I. Joe: The Rise of Cobra: Dilogy (Стивен Соммерс, Джон М. Чу) [2009-2013, фантастика, боевик, триллер, UHD BDRip2160p] DUB (rus, ukr) + 3xAVO pb.wtf

Бросок кобры через торрент pb.wtf

Размер: 63.47 GB | Добавлен: 4 года назад | Торрент скачан:40 раз
Смотреть онлайн Бросок кобры | Скачать    Ребята, помогите собрать деньги на оплату серверов!!!

04-08-2018 03:45 Бросок кобры Скачать торрент  

Бросок кобры (Дилогия) / G.I. Joe: The Rise of Cobra: Dilogy

Бросок кобры / G.I. Joe: The Rise of Cobra«Когда остальные сдаются, они идут до конца»
Год выпуска: 2009
Страна: США, Чехия
Жанр: фантастика, боевик, триллер, приключения
Продолжительность: 01:57:59
Перевод: Дублированный, авторский
Субтитры: Русские (форсированные, полные), английские
Режиссер: Стивен Соммерс
В ролях:

Адевале Акинойе-Агбаже (Heavy Duty), Кристофер Экклстон (McCullen), Грегори Фетусси (Baron de Cobray), Джозеф Гордон-Левитт (The Doctor), Лео Ховард (Young Snake Eyes), Каролина Куркова (Cover Girl), Ли Бён-хон (Storm Shadow), Сиенна Миллер (Baroness), Дэвид Мюррэй (James McCullen - 1641), Рэйчел Николс (Scarlett), Кевин Дж. О’Коннор (Dr. Mindbender), Джералд Окамура (Hard Master)
Описание:
Базирующееся в Египте высокотехнологичное международное военное подразделение, известное как G.I. Joe, противостоит зловещей корпорации, руководимой знаменитым оружейным бароном.
Рейтинг:

MPAA: PG-13 - Детям до 13 лет просмотр не желателен
Качество: UHD BDRip 2160p
Формат: MKV
Видео: HEVC HDR, 30.3 Mбит/с, 3840x1600, 23.976 кадр/с
Аудио 1: Русский (DTS, 6 ch, 768 Кбит/с, 48.0 KHz) / Дублированный
Аудио 2: Русский (АС3, 6 ch, 448 Кбит/с, 48.0 KHz) / Авторский (Лизнев)
Аудио 3: Русский (АС3, 6 ch, 448 Кбит/с, 48.0 KHz) / Авторский (Гаврилов)
Аудио 4: Украинский (АС3, 6 ch, 448 Кбит/с, 48.0 KHz) / Дублированный
Аудио 5: Английский (DTS, 6 ch, 1510 Кбит/с, 48.0 KHz)
Навигация по главам: Есть
Кандидатура Сэма Уортингтона рассматривалась на роль Дюка.
Изначально Дэвид Мюррэй должен был сыграть Дестро.
Скип Вудс написал раннюю версию сценария с участием Алекса Манна и его жены Скарлетт. Главным злодеем должен был стать Райан.
Изначально Лоренцо Ди Бонавентура хотел, чтобы Марк Уолберг сыграл Дюка.
Коммону предлагали роль Роадблока, кузена Хэви Дюти. Он отказался. В дальнейшем роли Хэви Дюти и его кузена переписали, соединив их в один персонаж.
Для подготовки к роли Баронессы Сиенна Миллер усиленно тренировалась четыре месяца, набрав пять фунтов (около двух килограммов) мышечной массы.
Все сцены с участием Денниса Куэйда были сняты в первые два месяца съёмок.
В 2003 году Дон Мерфи должен был стать продюсером фильма, однако он договорился с «Hasbro Company», что будет продюсировать «Трансформеров» (2007).
Ларри Хама, создатель «G.I. Joe» (1985), был нанят в качестве консультанта.
Изначально Чаннинг Татум отклонил предложение сыграть в фильме, т. к. по его мнению, кино прославляло войну. Однако когда он прочитал сценарий, он передумал, т. к. картина ему больше представлялась как фантастический экшн-триллер, а не военное кино.
Друзья Ченнинг Татум и Джозеф Гордон-Левитт сыграли заклятых врагов — Дюка и Командира Кобры.
Рэй Парк, сыгравший Змеиные Глаза, в качестве подготовки к роли тренировался вушу, а также изучал персонажа в многочисленных комиксах и сериалах о G.I. Joe.
Экшн-сцены, действие которых происходит на парижских улицах, снимались в Праге.
Деннис Куэйд согласился сыграть Генерала Хоука по настоянию своего сына, являющегося большим поклонником G.I. Joe.
Рэйчел Николс была первоначальным выбором продюсеров на роль Скарлетт О’Хара.
Создателям настолько понравилось работать вместе с Деннисом Куэйдом, что специально для него в фильм добавили около 10-15 сцен.
Дизайн маски Командира Кобры был значительно изменен, т. к. версия 1985 года слишком сильно напоминали маски Ку Клукс Клана.
Частично манеру речи и голос своего персонажа Джозеф Гордон-Левитт старался воспроизвести у Криса Латта из «G.I. Joe» (1985), однако по большей части он использовал свое воображение в создании персонажа.
Съёмочный процесс длился 82 дня вместо предусмотренных 95 дней.
Фильм снимался практически без сценария и режиссёру приходилось придумывать всё находу из-за сжатых сроков, которые студия выделила на съёмку фильма.
Декорация для съёмки импульсной пушки на базе Кобры была высотой с пятиэтажный дом.
Стивен Соммерс 20 лет назад написал сценарий к фильму про костюмы-ускорители, но его тогда никто не купил. Свой замысел он смог воплотить в «Броске кобры».
General
Unique ID : 161043158203933977798438050985420308706 (0x7927C8B8F76C407C6978B1E08AD4C0E2)
Complete name : C:UsersPublicVideosSample VideosFilmyG.I.Joe.2009-2013.BDRip-HEVC.2160p.HDR.MediaClubG.I.Joe.The.Rise.of.Cobra.2009.BDRip-HEVC.2160p.HDR.MediaClub.mkv
Format : Matroska
Format version : Version 4 / Version 2
File size : 28.0 GiB
Duration : 1 h 57 min
Overall bit rate : 33.9 Mb/s
Encoded date : UTC 2018-08-03 08:33:11
Writing application : mkvmerge v25.0.0 ('Prog Noir') 64-bit
Writing library : libebml v1.3.6 + libmatroska v1.4.9
Cover : Yes
Attachments : cover.jpg

Video
ID : 1
Format : HEVC
Format/Info : High Efficiency Video Coding
Commercial name : HDR10
Format profile : Main [email protected]@High
Codec ID : V_MPEGH/ISO/HEVC
Duration : 1 h 57 min
Bit rate : 30.3 Mb/s
Width : 3 840 pixels
Height : 1 600 pixels
Display aspect ratio : 2.40:1
Frame rate mode : Constant
Frame rate : 23.976 (24000/1001) FPS
Color space : YUV
Chroma subsampling : 4:2:0 (Type 2)
Bit depth : 10 bits
Bits/(Pixel*Frame) : 0.206
Stream size : 25.0 GiB (89%)
Title : BDRip-HEVC.2160p.HDR by Silverok
Writing library : x265 2.8+10-703eade86b53:[Windows][GCC 8.1.0][64 bit] 10bit
Encoding settings : cpuid=1176575 / frame-threads=5 / numa-pools=32 / wpp / no-pmode / no-pme / no-psnr / no-ssim / log-level=2 / input-csp=1 / input-res=3840x1600 / interlace=0 / total-frames=169736 / level-idc=51 / high-tier=1 / uhd-bd=0 / ref=4 / no-allow-non-conformance / repeat-headers / annexb / aud / hrd / info / hash=0 / no-temporal-layers / no-open-gop / min-keyint=24 / keyint=240 / gop-lookahead=0 / bframes=4 / b-adapt=2 / b-pyramid / bframe-bias=0 / rc-lookahead=25 / lookahead-slices=4 / scenecut=40 / radl=0 / no-intra-refresh / ctu=64 / min-cu-size=8 / rect / no-amp / max-tu-size=32 / tu-inter-depth=1 / tu-intra-depth=1 / limit-tu=0 / rdoq-level=2 / dynamic-rd=0.00 / no-ssim-rd / signhide / no-tskip / nr-intra=0 / nr-inter=0 / no-constrained-intra / no-strong-intra-smoothing / max-merge=3 / limit-refs=3 / limit-modes / me=3 / subme=3 / merange=57 / temporal-mvp / weightp / no-weightb / no-analyze-src-pics / deblock=-3:-3 / no-sao / no-sao-non-deblock / rd=4 / no-early-skip / rskip / no-fast-intra / no-tskip-fast / no-cu-lossless / no-b-intra / no-splitrd-skip / rdpenalty=0 / psy-rd=2.00 / psy-rdoq=1.00 / no-rd-refine / no-lossless / cbqpoffs=0 / crqpoffs=0 / rc=crf / crf=18.0 / qcomp=0.60 / qpstep=4 / stats-write=0 / stats-read=0 / vbv-maxrate=160000 / vbv-bufsize=160000 / vbv-init=0.9 / crf-max=0.0 / crf-min=0.0 / ipratio=1.40 / pbratio=1.30 / aq-mode=1 / aq-strength=1.00 / cutree / zone-count=0 / no-strict-cbr / qg-size=32 / no-rc-grain / qpmax=69 / qpmin=0 / no-const-vbv / sar=1 / overscan=0 / videoformat=5 / range=0 / colorprim=9 / transfer=16 / colormatrix=9 / chromaloc=1 / chromaloc-top=2 / chromaloc-bottom=2 / display-window=0 / master-display=G(13250,34500)B(7500,3000)R(34000,16000)WP(15635,16450)L(10000000,1) / max-cll=0,0 / min-luma=0 / max-luma=1023 / log2-max-poc-lsb=8 / vui-timing-info / vui-hrd-info / slices=1 / no-opt-qp-pps / no-opt-ref-list-length-pps / no-multi-pass-opt-rps / scenecut-bias=0.05 / no-opt-cu-delta-qp / no-aq-motion / hdr / hdr-opt / no-dhdr10-opt / no-idr-recovery-sei / analysis-reuse-level=5 / scale-factor=0 / refine-intra=0 / refine-inter=0 / refine-mv=0 / no-limit-sao / ctu-info=0 / no-lowpass-dct / refine-mv-type=0 / copy-pic=1 / max-ausize-factor=1.0 / no-dynamic-refine / no-single-sei
Default : Yes
Forced : No
Color range : Limited
Color primaries : BT.2020
Transfer characteristics : PQ
Matrix coefficients : BT.2020 non-constant
Mastering display color primaries : Display P3
Mastering display luminance : min: 0.0001 cd/m2, max: 1000 cd/m2

Audio #1
ID : 2
Format : DTS
Format/Info : Digital Theater Systems
Codec ID : A_DTS
Duration : 1 h 57 min
Bit rate mode : Constant
Bit rate : 768 kb/s
Channel(s) : 6 channels
Channel positions : Front: L C R, Side: L R, LFE
Sampling rate : 48.0 kHz
Frame rate : 93.750 FPS (512 SPF)
Bit depth : 24 bits
Compression mode : Lossy
Stream size : 648 MiB (2%)
Title : Дублированный
Language : Russian
Default : Yes
Forced : No

Audio #2
ID : 3
Format : AC-3
Format/Info : Audio Coding 3
Codec ID : A_AC3
Duration : 1 h 57 min
Bit rate mode : Constant
Bit rate : 448 kb/s
Channel(s) : 6 channels
Channel positions : Front: L C R, Side: L R, LFE
Sampling rate : 48.0 kHz
Frame rate : 31.250 FPS (1536 SPF)
Bit depth : 16 bits
Compression mode : Lossy
Stream size : 378 MiB (1%)
Title : Авторский (Лизнев)
Language : Russian
Service kind : Complete Main
Default : No
Forced : No

Audio #3
ID : 4
Format : AC-3
Format/Info : Audio Coding 3
Codec ID : A_AC3
Duration : 1 h 57 min
Bit rate mode : Constant
Bit rate : 448 kb/s
Channel(s) : 6 channels
Channel positions : Front: L C R, Side: L R, LFE
Sampling rate : 48.0 kHz
Frame rate : 31.250 FPS (1536 SPF)
Bit depth : 16 bits
Compression mode : Lossy
Stream size : 378 MiB (1%)
Title : Авторский (Гаврилов)
Language : Russian
Service kind : Complete Main
Default : No
Forced : No

Audio #4
ID : 5
Format : AC-3
Format/Info : Audio Coding 3
Codec ID : A_AC3
Duration : 1 h 57 min
Bit rate mode : Constant
Bit rate : 448 kb/s
Channel(s) : 6 channels
Channel positions : Front: L C R, Side: L R, LFE
Sampling rate : 48.0 kHz
Frame rate : 31.250 FPS (1536 SPF)
Bit depth : 16 bits
Compression mode : Lossy
Stream size : 378 MiB (1%)
Title : Дублированный
Language : Ukrainian
Service kind : Complete Main
Default : No
Forced : No

Audio #5
ID : 6
Format : DTS
Format/Info : Digital Theater Systems
Codec ID : A_DTS
Duration : 1 h 57 min
Bit rate mode : Constant
Bit rate : 1 509 kb/s
Channel(s) : 6 channels
Channel positions : Front: L C R, Side: L R, LFE
Sampling rate : 48.0 kHz
Frame rate : 93.750 FPS (512 SPF)
Bit depth : 24 bits
Compression mode : Lossy
Stream size : 1.24 GiB (4%)
Language : English
Default : No
Forced : No

Text #1
ID : 7
Format : UTF-8
Codec ID : S_TEXT/UTF8
Codec ID/Info : UTF-8 Plain Text
Duration : 1 h 41 min
Bit rate : 1 b/s
Count of elements : 21
Stream size : 794 Bytes (0%)
Title : Forced
Language : Russian
Default : Yes
Forced : Yes

Text #2
ID : 8
Format : UTF-8
Codec ID : S_TEXT/UTF8
Codec ID/Info : UTF-8 Plain Text
Duration : 1 h 47 min
Bit rate : 89 b/s
Count of elements : 1173
Stream size : 70.3 KiB (0%)
Title : Full
Language : Russian
Default : No
Forced : No

Text #3
ID : 9
Format : UTF-8
Codec ID : S_TEXT/UTF8
Codec ID/Info : UTF-8 Plain Text
Duration : 1 h 48 min
Bit rate : 64 b/s
Count of elements : 1397
Stream size : 50.7 KiB (0%)
Title : Full
Language : English
Default : No
Forced : No

Menu
00:00:00.000 : en:00:00:00.000
00:06:07.701 : en:00:06:07.701
00:13:38.943 : en:00:13:38.943
00:20:15.005 : en:00:20:15.005
00:24:18.040 : en:00:24:18.040
00:28:20.616 : en:00:28:20.616
00:33:14.576 : en:00:33:14.576
00:40:58.122 : en:00:40:58.122
00:47:06.032 : en:00:47:06.032
00:51:19.034 : en:00:51:19.034
00:54:17.838 : en:00:54:17.838
01:00:58.572 : en:01:00:58.572
01:05:46.401 : en:01:05:46.401
01:12:48.489 : en:01:12:48.489
01:18:54.104 : en:01:18:54.104
01:24:13.298 : en:01:24:13.298
01:29:21.982 : en:01:29:21.982
01:38:15.473 : en:01:38:15.473
01:43:36.419 : en:01:43:36.419
01:49:06.582 : en:01:49:06.582

G.I. Joe: Бросок кобры 2 / G.I. Joe: Retaliation

Год выпуска: 2013
Страна: США
Жанр: фантастика, боевик, триллер, приключения
Продолжительность: 01:50:14
Перевод: Дублированный, авторский
Субтитры: Русские, украинские, английские
Режиссер: Джон М. Чу
В ролях:

Дуэйн Джонсон (Roadblock), Эдрианн Палики (Jaye), Брюс Уиллис (General Joe Colton), Рэй Парк (Snake Eyes), Ли Бён-хон (Storm Shadow), Д.Дж. Котрона (Flint), Джонатан Прайс (President), Элоди Юнг (Jinx), Ченнинг Татум (Duke), Люк Брейси (Cobra Commander), Рэй Стивенсон (Firefly), Уолтон Гоггинс (Warden Nigel James)
Описание:
Во второй части отряд «G.I. Joe» вновь объявит вызов группировке «Кобра» и вступит в противостояние с правительством.
Рейтинг:

MPAA: PG-13 - Детям до 13 лет просмотр не желателен
Качество: UHD BDRip 2160p
Формат: MKV
Видео: HEVC HDR, 41.1 Mбит/с, 3840x1600, 23.976 кадр/с
Аудио: Русский (DTS, 6 ch, 1510 Кбит/с, 48.0 KHz) / Дублированный
Аудио: Русский (DTS, 6 ch, 1510 Кбит/с, 48.0 KHz) / Авторский (А.Гаврилов)
Аудио: Украинский (АС3, 6 ch, 448 Кбит/с, 48.0 KHz) / Дублированный (DVD R5)
Аудио: Английский (DTS, 6 ch, 1510 Кбит/с, 48.0 KHz)
Навигация по главам: Есть
General
Unique ID : 197526389899236143877429967551704426484 (0x949A32EBDAEE54FB1E70BFF4013D67F4)
Complete name : C:UsersPublicVideosSample VideosFilmyG.I.Joe.2009-2013.BDRip-HEVC.2160p.HDR.MediaClubG.I.Joe.Retaliation.2013.THEATRICAL.BDRip-HEVC.2160p.HDR.MediaClub.mkv
Format : Matroska
Format version : Version 4 / Version 2
File size : 35.5 GiB
Duration : 1 h 50 min
Overall bit rate : 46.1 Mb/s
Encoded date : UTC 2018-08-03 12:46:16
Writing application : mkvmerge v25.0.0 ('Prog Noir') 64-bit
Writing library : libebml v1.3.6 + libmatroska v1.4.9
Cover : Yes
Attachments : cover.jpg

Video
ID : 1
Format : HEVC
Format/Info : High Efficiency Video Coding
Commercial name : HDR10
Format profile : Main [email protected]@High
Codec ID : V_MPEGH/ISO/HEVC
Duration : 1 h 50 min
Bit rate : 41.1 Mb/s
Width : 3 840 pixels
Height : 1 600 pixels
Display aspect ratio : 2.40:1
Frame rate mode : Constant
Frame rate : 23.976 (24000/1001) FPS
Color space : YUV
Chroma subsampling : 4:2:0 (Type 2)
Bit depth : 10 bits
Bits/(Pixel*Frame) : 0.279
Stream size : 31.7 GiB (89%)
Title : BDRip-HEVC.2160p.HDR by Silverok
Writing library : x265 2.8+24-289b8a3730ae:[Windows][GCC 7.3.0][64 bit] 10bit
Encoding settings : cpuid=1111039 / frame-threads=16 / numa-pools=24,24,24,24 / wpp / no-pmode / no-pme / no-psnr / no-ssim / log-level=2 / input-csp=1 / input-res=3840x1600 / interlace=0 / total-frames=0 / level-idc=51 / high-tier=1 / uhd-bd=0 / ref=3 / no-allow-non-conformance / repeat-headers / annexb / aud / hrd / info / hash=0 / no-temporal-layers / no-open-gop / min-keyint=1 / keyint=24 / gop-lookahead=0 / bframes=4 / b-adapt=2 / b-pyramid / bframe-bias=0 / rc-lookahead=25 / lookahead-slices=4 / scenecut=40 / radl=0 / no-intra-refresh / ctu=64 / min-cu-size=8 / no-rect / no-amp / max-tu-size=32 / tu-inter-depth=1 / tu-intra-depth=1 / limit-tu=0 / rdoq-level=0 / dynamic-rd=0.00 / no-ssim-rd / signhide / no-tskip / nr-intra=0 / nr-inter=0 / no-constrained-intra / strong-intra-smoothing / max-merge=2 / limit-refs=3 / no-limit-modes / me=1 / subme=2 / merange=57 / temporal-mvp / weightp / no-weightb / no-analyze-src-pics / deblock=0:0 / no-sao / no-sao-non-deblock / rd=3 / no-early-skip / rskip / no-fast-intra / no-tskip-fast / no-cu-lossless / no-b-intra / no-splitrd-skip / rdpenalty=0 / psy-rd=2.00 / psy-rdoq=0.00 / no-rd-refine / no-lossless / cbqpoffs=0 / crqpoffs=0 / rc=crf / crf=16.0 / qcomp=0.60 / qpstep=4 / stats-write=0 / stats-read=0 / vbv-maxrate=160000 / vbv-bufsize=160000 / vbv-init=0.9 / crf-max=0.0 / crf-min=0.0 / ipratio=1.40 / pbratio=1.30 / aq-mode=1 / aq-strength=1.00 / cutree / zone-count=0 / no-strict-cbr / qg-size=32 / no-rc-grain / qpmax=69 / qpmin=0 / no-const-vbv / sar=1 / overscan=0 / videoformat=5 / range=0 / colorprim=9 / transfer=16 / colormatrix=9 / chromaloc=1 / chromaloc-top=2 / chromaloc-bottom=2 / display-window=0 / master-display=G(13250,34500)B(7500,3000)R(34000,16000)WP(15635,16450)L(10000000,01) / max-cll=0,0 / min-luma=0 / max-luma=1023 / log2-max-poc-lsb=8 / vui-timing-info / vui-hrd-info / slices=1 / opt-qp-pps / opt-ref-list-length-pps / no-multi-pass-opt-rps / scenecut-bias=0.05 / no-opt-cu-delta-qp / no-aq-motion / hdr / hdr-opt / no-dhdr10-opt / no-idr-recovery-sei / analysis-reuse-level=5 / scale-factor=0 / refine-intra=0 / refine-inter=0 / refine-mv=0 / no-limit-sao / ctu-info=0 / no-lowpass-dct / refine-mv-type=0 / copy-pic=1 / max-ausize-factor=1.0 / no-dynamic-refine / no-single-sei
Default : Yes
Forced : No
Color range : Limited
Color primaries : BT.2020
Transfer characteristics : PQ
Matrix coefficients : BT.2020 non-constant
Mastering display color primaries : Display P3
Mastering display luminance : min: 0.0001 cd/m2, max: 1000 cd/m2

Audio #1
ID : 2
Format : DTS
Format/Info : Digital Theater Systems
Codec ID : A_DTS
Duration : 1 h 50 min
Bit rate mode : Constant
Bit rate : 1 509 kb/s
Channel(s) : 6 channels
Channel positions : Front: L C R, Side: L R, LFE
Sampling rate : 48.0 kHz
Frame rate : 93.750 FPS (512 SPF)
Bit depth : 24 bits
Compression mode : Lossy
Stream size : 1.16 GiB (3%)
Title : дублированный
Language : Russian
Default : Yes
Forced : No

Audio #2
ID : 3
Format : DTS
Format/Info : Digital Theater Systems
Codec ID : A_DTS
Duration : 1 h 50 min
Bit rate mode : Constant
Bit rate : 1 509 kb/s
Channel(s) : 6 channels
Channel positions : Front: L C R, Side: L R, LFE
Sampling rate : 48.0 kHz
Frame rate : 93.750 FPS (512 SPF)
Bit depth : 24 bits
Compression mode : Lossy
Stream size : 1.16 GiB (3%)
Title : Авторский (А.Гаврилов)
Language : Russian
Default : No
Forced : No

Audio #3
ID : 4
Format : AC-3
Format/Info : Audio Coding 3
Codec ID : A_AC3
Duration : 1 h 50 min
Bit rate mode : Constant
Bit rate : 448 kb/s
Channel(s) : 6 channels
Channel positions : Front: L C R, Side: L R, LFE
Sampling rate : 48.0 kHz
Frame rate : 31.250 FPS (1536 SPF)
Bit depth : 16 bits
Compression mode : Lossy
Stream size : 353 MiB (1%)
Title : дублированный (DVD R5)
Language : Ukrainian
Service kind : Complete Main
Default : No
Forced : No

Audio #4
ID : 8
Format : DTS
Format/Info : Digital Theater Systems
Codec ID : A_DTS
Duration : 1 h 50 min
Bit rate mode : Constant
Bit rate : 1 509 kb/s
Channel(s) : 6 channels
Channel positions : Front: L C R, Side: L R, LFE
Sampling rate : 48.0 kHz
Frame rate : 93.750 FPS (512 SPF)
Bit depth : 24 bits
Compression mode : Lossy
Stream size : 1.16 GiB (3%)
Language : English
Default : No
Forced : No

Text #1
ID : 5
Format : UTF-8
Codec ID : S_TEXT/UTF8
Codec ID/Info : UTF-8 Plain Text
Duration : 1 h 39 min
Bit rate : 72 b/s
Count of elements : 1038
Stream size : 53.2 KiB (0%)
Title : Full
Language : Russian
Default : Yes
Forced : No

Text #2
ID : 6
Format : UTF-8
Codec ID : S_TEXT/UTF8
Codec ID/Info : UTF-8 Plain Text
Duration : 1 h 39 min
Bit rate : 82 b/s
Count of elements : 1176
Stream size : 60.6 KiB (0%)
Title : Full
Language : Ukrainian
Default : No
Forced : No

Text #3
ID : 7
Format : UTF-8
Codec ID : S_TEXT/UTF8
Codec ID/Info : UTF-8 Plain Text
Duration : 1 h 39 min
Bit rate : 48 b/s
Count of elements : 1157
Stream size : 35.0 KiB (0%)
Title : Full
Language : English
Default : No
Forced : No

Menu
00:00:00.000 : en:Chapter 1
00:06:08.242 : en:Chapter 2
00:12:52.313 : en:Chapter 3
00:17:35.471 : en:Chapter 4
00:25:37.369 : en:Chapter 5
00:30:56.187 : en:Chapter 6
00:39:00.880 : en:Chapter 7
00:42:40.975 : en:Chapter 8
00:48:31.241 : en:Chapter 9
00:54:02.989 : en:Chapter 10
01:01:46.536 : en:Chapter 11
01:07:34.675 : en:Chapter 12
01:13:56.807 : en:Chapter 13
01:17:54.461 : en:Chapter 14
01:23:45.979 : en:Chapter 15
01:31:12.758 : en:Chapter 16
01:41:13.358 : en:Chapter 17
pb.wtf



Скачать Бросок кобры через торрент https://a.radikal.ru/a02/1808/59/490242b8aeed.png Скачать, смотреть онлайн Бросок кобры бесплантно в хорошем качестве Описание: Базирующееся в Египте высокотехнологичное международное военное подразделение, известное как G.I. Joe, противостоит зловещей ... 10 10 6
Info! Золотая раздача, скачанное не засчитывается.
Торрент: Зарегистрирован [2018-08-04 03:45] · скачан: 40 раз
Статус: √ проверено
Размер: 63.47 GB
Как cкачать? Как скачать Бросок кобры через торрент | UTorrent

% Раздел Тема Автор DL S | L
Ultra HD (UHD: 2K, 4K, 8K) — видео сверхвысокой чёткости [ 50.1 GB ] Бросок кобры / G.I. Joe: The Rise of Cobra [2009 UHD BDRemux 2160p] DUB + 2xAVO sheker187 Скачать
1 | 0

28-11-2019 20:33  

Отключить вcю реклaмy на сайте

    Дорогой пользователь! Огромная просьба, поблагодарите релизера, оцените раздачу и оставьте свои комментарий, если Вы скачали Бросок кобры через торрент бесплатно!
    Комментировать посты могут только пользователи прошедшие не сложную регистрацию
    Показать сообщения:    

    Бросок кобры через торрент
    Скачать бесплатно Бросок кобры
    Бросок кобры скачать торрент
    Бросок кобры смотреть онлайн
    Cкачать фильм Бросок кобры бесплатно
    Бросок кобры скачать торрент в хорошем качестве
    Бросок кобры смотреть онлайн бесплатно в хорошем качестве


    Вы не можете начинать темы
    Вы не можете отвечать на сообщения
    Вы не можете редактировать свои сообщения
    Вы не можете удалять свои сообщения
    Вы не можете голосовать в опросах
    Вы не можете прикреплять файлы к сообщениям
    Вы можете скачивать файлы