новый адрес
Ссылка на приватное зеркало всего за 1$. Внимание количество ограничено!!!

iTunes

1+1

iTunes

мы

iTunes

1

iTunes

Чернобыль

iTunes

Ральф против интернета

Лицензия

ПШазам

Лицензия

Оно 2

Лицензия

30
pack

Вам бонус

ВАЖНО

!!Акция!!

Alien_RageХит недели

RePack

Resident Evil 21

ИГРА 18+

pack

RePack

jed

!!Акция!!

Alien_Rage

RePack

fifa19

RePack

Assassins Creed: Odyssey

RePack

NEED FOR SPEED™ PAYBACK

3 сезон

9 сезон

Бесстыжие 9 сезон

Все сериалы

все сериалы на PB.wtf

RePack

FAR CRY 5
Ребята, катастрофически не хватает 1900р. для оплаты серверов за Октябрь (всвязи с блокировками трафик упал в 3 раза), 1-2р., выручайте.
  

Сага о чудовище. Сумерки / Wildling (Фридрих Боэм) [2018, Ужасы, фэнтези, BDRip-AVC] DUB [iTunes] pb.wtf

Сага о чудовище. Сумерки через торрент pb.wtf

Размер: 1.53 GB | Добавлен: 1 год 4 мес. назад | Торрент скачан:234 раза
Скачать  

04-08-2018 04:51 Сага о чудовище. Сумерки Скачать торрент  

Сага о чудовище. Сумерки / Wildling
Год выпуска: 2018
Страна: США
Жанр: Ужасы, фэнтези
Продолжительность: 01:32:21
Перевод: Дублированный | iTunes
Субтитры: Английские

Режиссер: Фридрих Боэм

rating

В ролях:

Лив Тайлер, Брэд Дуриф, Бел Паули, Джеймс ЛеГрос, Майк Фейст, Коллин Келли-Сорделет, Kelly Lamor Wilson, Джулия Русацки, Трой Раптэш, Шарлотта Уббен, Фрэнк Дил, Патрик М. Уолш

Описание:

Сюжет посвящён истории 16-летней девушка Анны, с самых малых пор проводящей всё время в четырёх стенах запертого дома, поскольку опасается за свою жизнь: снаружи рыскает ужасающий монстр, пожирающий детей. Когда же девушка узнаёт, что вся эта история является не больше чем выдумкой её воспитателя, она решается выйти из дома. Однако сразу после этого начинают происходить страшные и необъяснимые события.

Качество: BDRip-AVC
Формат: MKV

Видео: 1024x576 (2.40:1), 23,976 fps, x264 ~1 541 kbps avg, 0.109 bit/pixel
Аудио#1: 48 kHz, AC3 Dolby Digital, 3/2 (L,C,R,l,r) + LFE ch, ~384.00 kbps avg | RUS (iTunes)
Аудио#2: 48 kHz, AC3 Dolby Digital, 3/2 (L,C,R,l,r) + LFE ch, ~448.00 kbps avg | ENG
скриншот  скриншот  скриншот  скриншот  скриншот  

Общее
Уникальный идентификатор : 127714512006513358855249401830738444474 (0x6014EB98D232BA5034F4934F3B3B40BA)
Полное имя : F:\OlLanDGroup\Wildling.2018.BDRip(AVC).OlLanDGroup.mkv
Формат : Matroska
Версия формата : Version 4 / Version 2
Размер файла : 1,53 Гбайт
Продолжительность : 1 ч. 32 м.
Общий поток : 2373 Кбит/сек
Название фильма : Wildling.2018 #TorpedoUK#
Дата кодирования : UTC 2018-08-04 03:27:07
Программа кодирования : mkvmerge v25.0.0 ('Prog Noir') 64-bit
Библиотека кодирования : libebml v1.3.6 + libmatroska v1.4.9

Видео
Идентификатор : 1
Формат : AVC
Формат/Информация : Advanced Video Codec
Профиль формата : High@L4.1
Параметр CABAC формата : Да
Параметр ReFrames формата : 10 кадров
Идентификатор кодека : V_MPEG4/ISO/AVC
Продолжительность : 1 ч. 32 м.
Битрейт : 1541 Кбит/сек
Ширина : 1024 пикселя
Высота : 576 пикселей
Соотношение сторон : 16:9
Режим частоты кадров : Постоянный
Частота кадров : 23,976 (24000/1001) кадра/сек
Цветовое пространство : YUV
Субдискретизация насыщенности : 4:2:0
Битовая глубина : 8 бит
Тип развёртки : Прогрессивная
Бит/(Пиксели*Кадры) : 0.109
Размер потока : 1017 Мбайт (65%)
Библиотека кодирования : x264 core 146 r2538 121396c
Настройки программы : cabac=1 / ref=10 / deblock=1:-3:-3 / analyse=0x3:0x113 / me=umh / subme=11 / psy=1 / psy_rd=0.99:0.04 / mixed_ref=1 / me_range=48 / chroma_me=1 / trellis=2 / 8x8dct=1 / cqm=0 / deadzone=21,11 / fast_pskip=1 / chroma_qp_offset=-3 / threads=6 / lookahead_threads=1 / sliced_threads=0 / nr=0 / decimate=1 / interlaced=0 / bluray_compat=0 / constrained_intra=0 / bframes=10 / b_pyramid=2 / b_adapt=2 / b_bias=0 / direct=3 / weightb=1 / open_gop=0 / weightp=2 / keyint=240 / keyint_min=23 / scenecut=40 / intra_refresh=0 / rc_lookahead=40 / rc=2pass / mbtree=1 / bitrate=1541 / ratetol=1.0 / qcomp=0.60 / qpmin=0 / qpmax=69 / qpstep=4 / cplxblur=20.0 / qblur=0.5 / vbv_maxrate=50000 / vbv_bufsize=62500 / nal_hrd=none / filler=0 / ip_ratio=1.40 / aq=1:1.00
Язык : English
Default : Да
Forced : Нет

Аудио #1
Идентификатор : 2
Формат : AC-3
Формат/Информация : Audio Coding 3
Расширение режима : CM (complete main)
Параметр Endianness формата : Big
Идентификатор кодека : A_AC3
Продолжительность : 1 ч. 32 м.
Вид битрейта : Постоянный
Битрейт : 384 Кбит/сек
Каналы : 6 каналов
Расположение каналов : Front: L C R, Side: L R, LFE
Частота : 48,0 КГц
Частота кадров : 31,250 кадров/сек (1536 spf)
Битовая глубина : 16 бит
Метод сжатия : С потерями
Размер потока : 254 Мбайт (16%)
Заголовок : iTunes
Язык : Russian
Default : Да
Forced : Нет

Аудио #2
Идентификатор : 3
Формат : AC-3
Формат/Информация : Audio Coding 3
Расширение режима : CM (complete main)
Параметр Endianness формата : Big
Идентификатор кодека : A_AC3
Продолжительность : 1 ч. 32 м.
Вид битрейта : Постоянный
Битрейт : 448 Кбит/сек
Каналы : 6 каналов
Расположение каналов : Front: L C R, Side: L R, LFE
Частота : 48,0 КГц
Частота кадров : 31,250 кадров/сек (1536 spf)
Битовая глубина : 16 бит
Метод сжатия : С потерями
Размер потока : 296 Мбайт (19%)
Заголовок : Original
Язык : English
Default : Нет
Forced : Нет

Текст #1
Идентификатор : 4
Формат : UTF-8
Идентификатор кодека : S_TEXT/UTF8
Идентификатор кодека/Информация : UTF-8 Plain Text
Продолжительность : 1 ч. 23 м.
Битрейт : 24 бит/сек
Count of elements : 482
Размер потока : 15,0 Кбайт (0%)
Заголовок : Full
Язык : English
Default : Нет
Forced : Нет

Текст #2
Идентификатор : 5
Формат : UTF-8
Идентификатор кодека : S_TEXT/UTF8
Идентификатор кодека/Информация : UTF-8 Plain Text
Продолжительность : 1 ч. 31 м.
Битрейт : 28 бит/сек
Count of elements : 716
Размер потока : 19,0 Кбайт (0%)
Заголовок : SDH
Язык : English
Default : Нет
Forced : Нет

Меню
00:00:00.000 : en:Chapter 1
00:13:22.802 : en:Chapter 2
00:20:37.736 : en:Chapter 3
00:31:45.904 : en:Chapter 4
00:44:54.692 : en:Chapter 5
01:00:28.625 : en:Chapter 6
01:11:42.298 : en:Chapter 7
01:23:40.515 : en:Chapter 8

pb.wtf



Скачать Сага о чудовище. Сумерки через торрент http://img11.lostpic.net/2018/08/04/82d0d091feb5e31ff2231cd52bb833b0.jpg Скачать фильм Сага о чудовище. Сумерки через торрент бесплантно в хорошем качестве Описание: Сюжет посвящён истории 16-летней девушка Анны, с самых малых пор проводящей всё время в четырёх стенах запертого дома, поскольку ... 9.9 10 7
Торрент: Зарегистрирован [2018-08-04 04:51] · скачан: 234 раз
Статус: √ проверено
Размер: 1.53 GB
Как cкачать? Как скачать Сага о чудовище. Сумерки через торрент | qTorrent

% Раздел Тема Автор DL S | L
Фильмы 2018 [DVDrip, WEB-DLRip, HDrip] (DUB, MVO) [ 1.42 GB ] Сага о чудовище. Сумерки / Wildling [2018 BDRip] - Twi7ter Скачать
3 | 0
Фильмы (Blu-ray, BD-Remux, HDDVD) [ 17.59 GB ] Сага о чудовище. Сумерки / Wildling [2018 BD Remux 1080p] bober100 Скачать
1 | 0
Фильмы 2018 [DVDrip, WEB-DLRip, HDrip] (DUB, MVO) [ 745 MB ] Сага о чудовище. Сумерки / Wildling [2018 BDRip] bober100 Скачать
1 | 0
Фильмы 2018 [DVDrip, WEB-DLRip, HDrip] (DUB, MVO) [ 1.42 GB ] Сага о чудовище. Сумерки / Wildling [2018 BDRip] bober100 Скачать
1 | 0
Фильмы (WEB-DL 720p, 1080p) [ 2.85 GB ] Сага о чудовище. Сумерки / Wildling [2018 WEB-DL 720p] bober100 Скачать
2 | 0
Фильмы (WEB-DL 720p, 1080p) [ 4.7 GB ] Сага о чудовище. Сумерки / Wildling [2018 WEB-DL 1080p] bober100 Скачать
1 | 0
Отключить всю рекламу на сайте
    Дорогой пользователь! Огромная просьба, поблагодарите релизера, оцените раздачу и оставьте свои комментарий, если Вы скачали Сага о чудовище. Сумерки через торрент бесплатно! Внесите свою лепту в развитие PiratBit!
    Комментировать посты могут только пользователи прошедшие не сложную регистрацию
    Показать сообщения:    

    Сага о чудовище. Сумерки через торрент
    Скачать бесплатно Сага о чудовище. Сумерки
    Сага о чудовище. Сумерки скачать торрент
    Сага о чудовище. Сумерки смотреть онлайн
    Cкачать фильм Сага о чудовище. Сумерки бесплатно
    Сага о чудовище. Сумерки скачать торрент в хорошем качестве
    Сага о чудовище. Сумерки смотреть онлайн бесплатно в хорошем качестве


    Вы не можете начинать темы
    Вы не можете отвечать на сообщения
    Вы не можете редактировать свои сообщения
    Вы не можете удалять свои сообщения
    Вы не можете голосовать в опросах
    Вы не можете прикреплять файлы к сообщениям
    Вы можете скачивать файлы