Ссылка на приватное зеркало нашего сайта всего за 1$. Внимание количество ограничено!!!

2 сезон

iTunes

1 сезон

1

2 сезон

2 сезон

iTunes

1 сезон

RePack

30

Ultimate

ВАЖНО

ИГРА 18+

pack

RePack

MK11
pack

Забери бонус

RePack

jed

!!Акция!!

Alien_Rage

RePack

fifa19

RePack

Assassins Creed: Odyssey

RePack

NEED FOR SPEED™ PAYBACK

4 сезон

9 сезон

Бесстыжие 9 сезон

Все сериалы

все сериалы на PB.wtf

RePack

FAR CRY 5
  

Смертельное влечение / Heathers / Сезон: 1 / Серии: 1-10 из 10 (Кейт Дэннис, Сидни Фриланд, Лесли Хэдланд) [2018 , комедия, WEBRip 720p] MVO [Baibako] pb.wtf

Смертельное влечение через торрент pb.wtf

Размер: 7.44 GB | Добавлен: 2 года назад | Торрент скачан:6 раз
Скачать  

04-08-2018 07:15 Смертельное влечение Скачать торрент  

Смертельное влечение / Heathers
Год выпуска: 2018
Страна: США
Жанр: комедия
Продолжительность: ~ 00:30:00
Перевод: Профессиональный многоголосый |
Субтитры: отсутствуют

Режиссер: Кейт Дэннис, Сидни Фриланд, Лесли Хэдланд

rating

В ролях:

Ромель Де Сильва, Эдвин Браун, Анналиса Кокрейн, Джереми Кюлхейн, Мэнди Джун Турпин, Кристина Бёрдетт, Джо Дон Харрис

Описание:

Симпатичная отличница Вероника не пользуется популярностью в школе. Она – аутсайдер, и взамен на дружбу готова буквально прислуживать популярным ученикам. Так Вероника попадает в «друзья» к троице учеников, которых зовут одинаково: Хезер. Веронике не слишком нравятся сами Хезер и их отношение к ней. И тут в школе появляется новый ученик, Джейсон, который полностью изменит жизнь Вероники.

Качество: WEBRip 720p
Формат: MKV

Видео: MPEG-4 AVC, 2 500 Кбит/с, 1280x720
Аудио#1: AC3, 48,0 КГц, 2 ch, 384 kbps - Rus
Аудио#2: AC3, 48,0 КГц, 2 ch, 384 kbps - Eng

Общее
Уникальный идентификатор : 228783162065123740798753364725021079379 (0xAC1E08C5375FA8F194F302EAE868F753)
Полное имя : D:\Heathers.s01.HD720p.WEBRip.Rus.Eng.BaibaKo.tv\Heathers.s01e01.HD720p.WEBRip.Rus.Eng.BaibaKo.tv.mkv
Формат : Matroska
Версия формата : Version 4 / Version 2
Размер файла : 960 Мбайт
Продолжительность : 43 м. 7 с.
Общий поток : 3111 Кбит/сек
Дата кодирования : UTC 2018-02-21 21:36:27
Программа кодирования : mkvmerge v8.5.2 ('Crosses') 64bit
Библиотека кодирования : libebml v1.3.3 + libmatroska v1.4.4

Видео
Идентификатор : 1
Формат : AVC
Формат/Информация : Advanced Video Codec
Профиль формата : High@L3.1
Параметр CABAC формата : Да
Параметр RefFrames формата : 4 кадра
Идентификатор кодека : V_MPEG4/ISO/AVC
Продолжительность : 43 м. 7 с.
Битрейт : 2341 Кбит/сек
Ширина : 1280 пикселей
Высота : 720 пикселей
Соотношение сторон : 16:9
Режим частоты кадров : Постоянный
Частота кадров : 23,976 (24000/1001) кадра/сек
Цветовое пространство : YUV
Субдискретизация насыщенности : 4:2:0
Битовая глубина : 8 бит
Тип развёртки : Прогрессивная
Бит/(Пиксели*Кадры) : 0.106
Размер потока : 722 Мбайт (75%)
Библиотека кодирования : x264 core 152 r2851 ba24899
Настройки программы : cabac=1 / ref=3 / deblock=1:0:0 / analyse=0x3:0x113 / me=hex / subme=7 / psy=1 / psy_rd=1.00:0.00 / mixed_ref=1 / me_range=16 / chroma_me=1 / trellis=1 / 8x8dct=1 / cqm=0 / deadzone=21,11 / fast_pskip=1 / chroma_qp_offset=-2 / threads=22 / lookahead_threads=3 / sliced_threads=0 / nr=0 / decimate=1 / interlaced=0 / bluray_compat=0 / constrained_intra=0 / bframes=3 / b_pyramid=2 / b_adapt=1 / b_bias=0 / direct=1 / weightb=1 / open_gop=0 / weightp=2 / keyint=240 / keyint_min=23 / scenecut=40 / intra_refresh=0 / rc_lookahead=40 / rc=crf / mbtree=1 / crf=18.0 / qcomp=0.60 / qpmin=0 / qpmax=69 / qpstep=4 / ip_ratio=1.40 / aq=1:1.00
Default : Нет
Forced : Нет

Аудио #1
Идентификатор : 2
Формат : AC-3
Формат/Информация : Audio Coding 3
Расширение режима : CM (complete main)
Параметр Endianness формата : Big
Идентификатор кодека : A_AC3
Продолжительность : 43 м. 7 с.
Вид битрейта : Постоянный
Битрейт : 384 Кбит/сек
Каналы : 2 канала
Расположение каналов : Front: L R
Частота : 48,0 КГц
Частота кадров : 31,250 кадров/сек (1536 spf)
Метод сжатия : С потерями
Размер потока : 118 Мбайт (12%)
Язык : Russian
Default : Да
Forced : Нет

Аудио #2
Идентификатор : 3
Формат : AC-3
Формат/Информация : Audio Coding 3
Расширение режима : CM (complete main)
Параметр Endianness формата : Big
Идентификатор кодека : A_AC3
Продолжительность : 43 м. 7 с.
Вид битрейта : Постоянный
Битрейт : 384 Кбит/сек
Каналы : 2 канала
Расположение каналов : Front: L R
Частота : 48,0 КГц
Частота кадров : 31,250 кадров/сек (1536 spf)
Метод сжатия : С потерями
Размер потока : 118 Мбайт (12%)
Язык : English
Default : Нет
Forced : Нет

Внимание! Раздача ведётся путём добавления новых серий; при каждом добавлении создаётся новый торрент. Чтобы начать докачку новой серии, пользователям необходимо сделать следующее:
(1) остановить скачивание,
(2) удалить старый торрент у себя из клиента (старые серии удалять не надо),
(3) скачать новый торрент и запустить его у себя в клиенте вместо старого, при этом указать клиенту путь в старую папку куда и должно происходить скачивание новых серий.
Ваш клиент при этом должен произвести хеширование (проверку) старой папки (если не производит сам - помогите ему сделать это), и будет докачивать только те серии которых у вас ещё нет. Старые серии при этом не удаляются, а продолжают раздаваться!
Eсли вы уже удалили старые серии, то предотвратить повторную закачку старых серий можно, отжав галочку в соответствующих местах при запуске нового торрента. По возможности, желательно не удалять старые серии как можно дольше чтобы релизёр не столько продолжал раздавать старые серии, а смог сконцентрироваться на новых.
pb.wtf



Скачать Смертельное влечение через торрент http://img12.lostpic.net/2018/08/04/ead9e02bcf8f442ec145f75cbcf48731.jpg Скачать фильм Смертельное влечение через торрент бесплантно в хорошем качестве Описание: Симпатичная отличница Вероника не пользуется популярностью в школе. Она – аутсайдер, и взамен на дружбу готова буквально ... 9 10 6
Торрент: Зарегистрирован [2018-11-28 17:02] · скачан: 6 раз
Статус: √ проверено
Размер: 7.44 GB
Как cкачать? Как скачать Смертельное влечение через торрент | qTorrent

% Раздел Тема Автор DL S | L
Зарубежные сериалы [ 4.07 GB ] Смертельное влечение / Heathers / Сезон: 1 / Серии: 1-10 из 10 [2018 WEB-DLRip] MVO [ColdFilm] bober100 Скачать
1 | 0
Зарубежные сериалы [ 11.04 GB ] Смертельное влечение / Heathers / Сезон: 1 / Серии: 1-10 из 10 [2018 WEB-DL 720p] MVO [ColdFilm] bober100 Скачать
1 | 0
Зарубежные сериалы [ 8.18 GB ] Смертельное влечение / Heathers / Сезон: 1 / Серии: 1-10 из 10 [2018 WEBRip 720p] MVO [Jaskier] bober100 Скачать
1 | 0
Зарубежные сериалы [ 4.95 GB ] Смертельное влечение / Heathers / Сезон: 1 / Серии: 1-10 из 10 [2018 WEBRip] MVO [Jaskier] bober100 Скачать
1 | 0
Зарубежные сериалы [ 2.07 GB ] Смертельное влечение / Heathers / Сезон: 1 / Серии: 1 из 10 [2018 WEBRip 1080p] MVO [Jaskier] bober100 Скачать
1 | 0
Зарубежные сериалы [ 550 MB ] Смертельное влечение / Heathers / Сезон: 1 / Серии: 1 из 10 [2018 WEB-DLRip] MVO [NewStudio] bober100 Скачать
1 | 0

28-11-2019 20:33  

Отключить всю рекламу на сайте

    Дорогой пользователь! Огромная просьба, поблагодарите релизера, оцените раздачу и оставьте свои комментарий, если Вы скачали Смертельное влечение через торрент бесплатно! Внесите свою лепту в развитие PiratBit!
    Комментировать посты могут только пользователи прошедшие не сложную регистрацию
    Показать сообщения:    

    Смертельное влечение через торрент
    Скачать бесплатно Смертельное влечение
    Смертельное влечение скачать торрент
    Смертельное влечение смотреть онлайн
    Cкачать фильм Смертельное влечение бесплатно
    Смертельное влечение скачать торрент в хорошем качестве
    Смертельное влечение смотреть онлайн бесплатно в хорошем качестве


    Вы не можете начинать темы
    Вы не можете отвечать на сообщения
    Вы не можете редактировать свои сообщения
    Вы не можете удалять свои сообщения
    Вы не можете голосовать в опросах
    Вы не можете прикреплять файлы к сообщениям
    Вы можете скачивать файлы