Marvel's Avengers Deluxe Edition (супер цена) 159р. Внимание количество ограничено!!!

2 сезон

iTunes

iTunes

1

iTunes

iTunes

iTunes

WEBRip

iTunes

30
pack

Новость дня

ВАЖНО

!!Акция!!

Alien_RageХит недели

RePack

Horizon Zero Dawn

ИГРА 18+

pack

RePack

jed

!!Акция!!

Alien_Rage

RePack

fifa19

RePack

Assassins Creed: Odyssey

RePack

NEED FOR SPEED™ PAYBACK

4 сезон

9 сезон

Бесстыжие 9 сезон

Все сериалы

все сериалы на PB.wtf

RePack

FAR CRY 5
  

Смарадное дыхание: Легенда о Жопороте / Hellitosis: The Legend of Stankmouth (Роб Маллиган) [2017, Ужасы, комедия, WEB-DL 720p] MVO [КОЛОБОК] pb.wtf

Смарадное дыхание: Легенда о Жопороте через торрент pb.wtf

Размер: 2.47 GB | Добавлен: 2 года 1 мес. назад | Торрент скачан:65 раз
Скачать  

04-08-2018 08:10 Смарадное дыхание: Легенда о Жопороте Скачать торрент  

Смарадное дыхание: Легенда о Жопороте / Hellitosis: The Legend of Stankmouth
Год выпуска: 2017
Страна: США
Жанр: Ужасы, комедия
Продолжительность: 01:16:35
Перевод: Любительский (многоголосый) | КОЛОБОК
Субтитры: отсутствуют

Режиссер: Роб Маллиган

rating

В ролях:

Ллойд Кауфман, Валери Маллиган, Роб Маллиган, Танеси Грей, Хейли Гомес, Сара Белл, Майк Виглионе, Эд Р. Рико, Май Марсинек, Бретт Дж. Миллер

Описание:

Пять человек случайно оказываются вместе с одним весьма странным и неповторимым чудовищем

Качество: WEB-DL 720p
Формат: MKV

Видео: h.264, 4 224 Кбит/с, 1280x720
Аудио#1: Русский, (AC3, 2 ch, 384 Кбит/с)
скриншот  скриншот  скриншот  

Общее
Уникальный идентификатор : 245381899140421007194387817045334323387 (0xB89AD5B14ACEB42C9F105C039E2670BB)
Полное имя : D:\Hellitosis.The.Legend.of.Stankmouth.2017.Pk.WEBDL.72Op.mkv
Формат : Matroska
Версия формата : Version 2
Размер файла : 2,47 Гбайт
Продолжительность : 1 ч. 16 м.
Режим общего битрейта : Переменный
Общий поток : 4610 Кбит/сек
Дата кодирования : UTC 2018-07-25 18:38:37
Программа кодирования : mkvmerge v8.3.0 ('Over the Horizon') 64bit
Библиотека кодирования : libebml v1.3.1 + libmatroska v1.4.2

Видео
Идентификатор : 1
Формат : AVC
Формат/Информация : Advanced Video Codec
Профиль формата : High@L4.1
Параметр CABAC формата : Да
Параметр RefFrames формата : 4 кадра
Идентификатор кодека : V_MPEG4/ISO/AVC
Продолжительность : 1 ч. 16 м.
Вид битрейта : Переменный
Битрейт : 4224 Кбит/сек
Максимальный битрейт : 5000 Кбит/сек
Ширина : 1280 пикселей
Высота : 720 пикселей
Соотношение сторон : 16:9
Режим частоты кадров : Постоянный
Частота кадров : 23,976 (24000/1001) кадра/сек
Стандарт вещания : Component
Цветовое пространство : YUV
Субдискретизация насыщенности : 4:2:0
Битовая глубина : 8 бит
Тип развёртки : Прогрессивная
Бит/(Пиксели*Кадры) : 0.187
Размер потока : 2,21 Гбайт (90%)
Default : Да
Forced : Нет
Цветовой диапазон : Limited
Основные цвета : BT.709
Характеристики трансфера : BT.709
Коэффициенты матрицы : BT.709

Аудио
Идентификатор : 2
Формат : AC-3
Формат/Информация : Audio Coding 3
Расширение режима : CM (complete main)
Параметр Endianness формата : Big
Идентификатор кодека : A_AC3
Продолжительность : 1 ч. 16 м.
Вид битрейта : Постоянный
Битрейт : 384 Кбит/сек
Каналы : 2 канала
Расположение каналов : Front: L R
Частота : 48,0 КГц
Частота кадров : 31,250 кадров/сек (1536 spf)
Метод сжатия : С потерями
Размер потока : 210 Мбайт (8%)
Default : Да
Forced : Нет

pb.wtf



Скачать Смарадное дыхание: Легенда о Жопороте через торрент http://img12.lostpic.net/2018/08/04/ac7a31b273871a11f4c4cb817507751a.jpg Скачать фильм Смарадное дыхание: Легенда о Жопороте через торрент бесплантно в хорошем качестве Описание: Пять человек случайно оказываются вместе с одним весьма странным и неповторимым ... 8.2 10 5
Торрент: Зарегистрирован [2018-08-04 08:10] · скачан: 65 раз
Статус: T временная
Размер: 2.47 GB
Как cкачать? Как скачать Смарадное дыхание: Легенда о Жопороте через торрент | qTorrent

% Раздел Тема Автор DL S | L
T Фильмы (мультфильмы) cо спонсором показа (Новинки AVI/MKV) [ 1.37 GB ] Смарадное дыхание: Легенда о Жопороте / Hellitosis: The Legend of Stankmouth [2017 WEB-DLRip] MVO [КОЛОБОК] bober100 Скачать
1 | 0

28-11-2019 20:33  

Отключить всю рекламу на сайте

04-08-2018 14:20 Смарадное дыхание: Легенда о Жопороте Скачать торрент  

Легенду о рукожопе лучше бы сняли )))pb.wtf



    Дорогой пользователь! Огромная просьба, поблагодарите релизера, оцените раздачу и оставьте свои комментарий, если Вы скачали Смарадное дыхание: Легенда о Жопороте через торрент бесплатно! Внесите свою лепту в развитие PiratBit!
    Комментировать посты могут только пользователи прошедшие не сложную регистрацию
    Показать сообщения:    

    Смарадное дыхание: Легенда о Жопороте через торрент
    Скачать бесплатно Смарадное дыхание: Легенда о Жопороте
    Смарадное дыхание: Легенда о Жопороте скачать торрент
    Смарадное дыхание: Легенда о Жопороте смотреть онлайн
    Cкачать фильм Смарадное дыхание: Легенда о Жопороте бесплатно
    Смарадное дыхание: Легенда о Жопороте скачать торрент в хорошем качестве
    Смарадное дыхание: Легенда о Жопороте смотреть онлайн бесплатно в хорошем качестве


    Вы не можете начинать темы
    Вы не можете отвечать на сообщения
    Вы не можете редактировать свои сообщения
    Вы не можете удалять свои сообщения
    Вы не можете голосовать в опросах
    Вы не можете прикреплять файлы к сообщениям
    Вы можете скачивать файлы