Ссылка на приватное зеркало нашего сайта всего за 1$. Внимание количество ограничено!!!

2 сезон

iTunes

iTunes

1

iTunes

iTunes

iTunes

WEBRip

iTunes

30
pack

Вам бонус

ВАЖНО

!!Акция!!

Alien_RageХит недели

RePack

Horizon Zero Dawn

ИГРА 18+

pack

RePack

jed

!!Акция!!

Alien_Rage

RePack

fifa19

RePack

Assassins Creed: Odyssey

RePack

NEED FOR SPEED™ PAYBACK

4 сезон

9 сезон

Бесстыжие 9 сезон

Все сериалы

все сериалы на PB.wtf

RePack

FAR CRY 5
  

Насекомые / Hmyz (Ян Шванкмайер) [2018 г., Комедия, драма, WEB-DLRip, Любительский (многоголосый)] [GreenРай Studio] pb.wtf

Насекомые через торрент pb.wtf

Размер: 1.37 GB | Добавлен: 2 года 1 мес. назад | Торрент скачан:38 раз
Скачать  

04-08-2018 09:17 Насекомые Скачать торрент  

Насекомые / Hmyz
Год выпуска: 2018
Страна: Чехия, Словакия
Жанр: Комедия, драма
Продолжительность: 01:32:27
Перевод: Любительский (многоголосый) | GreenРай Studio

Режиссер: Ян Шванкмайер

rating

В ролях: Иржи Лабус, Яромир Дулава, Норберт Лихий, Ян Бударж, Ивана Углиржова, Камила Магалова

Описание: Произведение Чапека "Из жизни насекомых" вдохновляет шестерых актеров-аматоров на его постановку. В ходе репетиции участники пьесы настолько убедительно вжились в роль жуков, что вскоре невероятным образом они и в самом деле превращаются в жужжащих насекомых. Мир переворачивается с ног на голову...

Качество: WEB-DLRip
Формат: AVI
Видео кодек: XviD
Аудио кодек: AC3
Видео: XviD, 672x400 , 25.0fps, 1678 Kbps
Аудио#1: AC3 , 2 ch , 48 kHz , 384 kbps
скриншот   скриншот   скриншот   скриншот  

Общее
Полное имя : D:Hmyz.2018.P.WEB-DLRip.1400MB.avi
Формат : AVI
Формат/Информация : Audio Video Interleave
Размер файла : 1,37 Гбайт
Продолжительность : 1 ч. 34 м.
Общий поток : 2072 Кбит/сек
Программа кодирования : VirtualDubMod 1.5.10.2 (build 2540/release)
Библиотека кодирования : VirtualDubMod build 2540/release

Видео
Идентификатор : 0
Формат : MPEG-4 Visual
Профиль формата : Advanced Simple@L5
Параметр BVOP формата : 2
Параметр QPel формата : Нет
Параметр GMC формата : Без точки перехода
Параметр матрицы формата : Default (MPEG)
Идентификатор кодека : XVID
Идентификатор кодека/Подсказка : XviD
Продолжительность : 1 ч. 34 м.
Битрейт : 1678 Кбит/сек
Ширина : 672 пикселя
Высота : 400 пикселей
Соотношение сторон : 1,680
Частота кадров : 25,000 кадров/сек
Цветовое пространство : YUV
Субдискретизация насыщенности : 4:2:0
Битовая глубина : 8 бит
Тип развёртки : Прогрессивная
Метод сжатия : С потерями
Бит/(Пиксели*Кадры) : 0.250
Размер потока : 1,11 Гбайт (81%)
Библиотека кодирования : XviD 1.2.1 (UTC 2008-12-04)

Аудио
Идентификатор : 1
Формат : AC-3
Формат/Информация : Audio Coding 3
Расширение режима : CM (complete main)
Параметр Endianness формата : Big
Идентификатор кодека : 2000
Продолжительность : 1 ч. 34 м.
Вид битрейта : Постоянный
Битрейт : 384 Кбит/сек
Каналы : 2 канала
Расположение каналов : Front: L R
Частота : 48,0 КГц
Битовая глубина : 16 бит
Метод сжатия : С потерями
Размер потока : 259 Мбайт (19%)
Выравнивание : Разделение по промежуткам
Продолжительность промежутка : 40 мс. (1,00 видеокадр)
Время предзагрузки промежутка : 500 мс.

pb.wtf



Скачать Насекомые через торрент http://pic1.kartinco.top/images/11/2kemz.jpg Скачать фильм Насекомые через торрент бесплантно в хорошем качестве Описание: Произведение Чапека "Из жизни насекомых" вдохновляет шестерых актеров-аматоров на его постановку. В ходе репетиции участники ... 10 10 4
Торрент: Зарегистрирован [2018-08-04 09:17] · скачан: 38 раз
Статус: T временная
Размер: 1.37 GB
Как cкачать? Как скачать Насекомые через торрент | qTorrent

28-11-2019 20:33  

Отключить всю рекламу на сайте

    Дорогой пользователь! Огромная просьба, поблагодарите релизера, оцените раздачу и оставьте свои комментарий, если Вы скачали Насекомые через торрент бесплатно! Внесите свою лепту в развитие PiratBit!
    Комментировать посты могут только пользователи прошедшие не сложную регистрацию
    Показать сообщения:    

    Насекомые через торрент
    Скачать бесплатно Насекомые
    Насекомые скачать торрент
    Насекомые смотреть онлайн
    Cкачать фильм Насекомые бесплатно
    Насекомые скачать торрент в хорошем качестве
    Насекомые смотреть онлайн бесплатно в хорошем качестве


    Вы не можете начинать темы
    Вы не можете отвечать на сообщения
    Вы не можете редактировать свои сообщения
    Вы не можете удалять свои сообщения
    Вы не можете голосовать в опросах
    Вы не можете прикреплять файлы к сообщениям
    Вы можете скачивать файлы