Ссылка на приватное зеркало нашего сайта всего за 1$. Внимание количество ограничено!!!

2 сезон

iTunes

1 сезон

1

2 сезон

2 сезон

iTunes

1 сезон

RePack

30

Ultimate

ВАЖНО

ИГРА 18+

pack

RePack

MK11
pack

Забери бонус

RePack

jed

!!Акция!!

Alien_Rage

RePack

fifa19

RePack

Assassins Creed: Odyssey

RePack

NEED FOR SPEED™ PAYBACK

4 сезон

9 сезон

Бесстыжие 9 сезон

Все сериалы

все сериалы на PB.wtf

RePack

FAR CRY 5
  

Люк Кейдж / Luke Cage / Сезон: 2 / Серии 1-13 из 13 (Адам Кэйн, Крис Мисиано) [2018, Фантастика, боевик, триллер, драма, криминал, WEB-DLRip 1080p] [MVO] (FilmsClub) pb.wtf

Люк Кейдж через торрент pb.wtf

Размер: 21.71 GB | Добавлен: 2 года 3 мес. назад | Торрент скачан:7 раз
Скачать  

04-08-2018 13:15 Люк Кейдж Скачать торрент  

Люк Кейдж / Luke Cage

Год выпуска: 2018
Страна: США
Жанр: Фантастика, боевик, триллер, драма, криминал
Продолжительность: ~ 01:00:00
Перевод: Профессиональный (многоголосый закадровый) | *FilmsClub*
Субтитры: Английские

Режиссёр: Пол МакГиган, Энди Годдар, Марк Йобст

В ролях:Махершала Али, Майк Колтер, Фрэнки Фэйзон, Эрик Ларей Харви, Дариус Калеб, Симона Кук, Тео Росси, Фрэнк Уэйли

Описание: Оказавшись по ложному обвинению в тюрьме, Карл Лукас становится невольным участником научного эксперимента, в результате которого он обрел огромную силу и пуленепробиваемую кожу. Эксперимент завершился разгромом лаборатории, и Карл смог сбежать. Поскольку он все еще разыскивается, Карл берет новое имя — Люк Кейдж — и возвращается в родной Гарлем. Он живет тихо, старается не привлекать к себе внимания. Люк Кейдж — обычный парень, который работает уборщиком в парикмахерской «У Папаши». Однако в районе все неспокойно. Многочисленные разборки, грабежи и вымогательства, в которых замешаны криминальные бароны и их банды, а также коррупционные политики — от всего этого страдают жители Гарлема. Люк должен сделать выбор — стоит ли продолжать скрываться, ведь у Люка есть свои скелеты в шкафу или же вмешаться и помочь...



Качество: WEB-DLRip 1080p
Формат: MKV
Видео: 1920x1080 (16:9) | X264 | ~4000 kbps | 23.976 fps
Аудио 1: AC3, 48,0 КГц, 6 ch, 384 kbps - [RUS]
Аудио 2: E-AC3, 48,0 КГц, 6 ch, 448 kbps - [ENG]
General
Unique ID : 196276322549060692540173695192875651494 (0x93A971D7AC0BA977019E6EAA31FBD1A6)
Complete name : F:\Marvels.Luke.Cage.S02.1080p.films.club\Marvels.Luke.Cage.S02E01.1080p.WEB-DL.DDP5.1.x264-films.club.mkv
Format : Matroska
Format version : Version 4 / Version 2
File size : 1.65 GiB
Duration : 56 min 11 s
Overall bit rate mode : Variable
Overall bit rate : 4 194 kb/s
Encoded date : UTC 2018-07-21 09:55:34
Writing application : mkvmerge v24.0.0 ('Beyond The Pale') 64-bit
Writing library : libebml v1.3.6 + libmatroska v1.4.9

Video
ID : 1
Format : AVC
Format/Info : Advanced Video Codec
Format profile : Main@L4
Format settings : CABAC / 3 Ref Frames
Format settings, CABAC : Yes
Format settings, RefFrames : 3 frames
Codec ID : V_MPEG4/ISO/AVC
Duration : 56 min 11 s
Bit rate mode : Variable
Bit rate : 3 278 kb/s
Nominal bit rate : 3 480 kb/s
Maximum bit rate : 5 220 kb/s
Width : 1 920 pixels
Height : 1 080 pixels
Display aspect ratio : 16:9
Frame rate mode : Constant
Frame rate : 23.976 (24000/1001) FPS
Color space : YUV
Chroma subsampling : 4:2:0
Bit depth : 8 bits
Scan type : Progressive
Bits/(Pixel*Frame) : 0.066
Stream size : 1.29 GiB (78%)
Writing library : x264 core 148 r2715 7e75228
Encoding settings : cabac=1 / ref=3 / deblock=1:0:0 / analyse=0x1:0x111 / me=umh / subme=10 / psy=1 / psy_rd=1.00:0.00 / mixed_ref=1 / me_range=24 / chroma_me=1 / trellis=2 / 8x8dct=0 / cqm=0 / deadzone=21,11 / fast_pskip=1 / chroma_qp_offset=-2 / threads=6 / lookahead_threads=1 / sliced_threads=0 / nr=0 / decimate=1 / interlaced=0 / bluray_compat=0 / stitchable=1 / constrained_intra=0 / bframes=2 / b_pyramid=0 / b_adapt=2 / b_bias=0 / direct=3 / weightb=1 / open_gop=0 / weightp=2 / keyint=48 / keyint_min=25 / scenecut=0 / intra_refresh=0 / rc_lookahead=48 / rc=2pass / mbtree=1 / bitrate=3480 / ratetol=1.0 / qcomp=0.50 / qpmin=6 / qpmax=51 / qpstep=4 / cplxblur=20.0 / qblur=0.5 / vbv_maxrate=5220 / vbv_bufsize=6960 / nal_hrd=vbr / filler=0 / ip_ratio=1.40 / aq=1:1.00
Default : Yes
Forced : No

Audio #1
ID : 2
Format : AC-3
Format/Info : Audio Coding 3
Format settings, Endianness : Big
Codec ID : A_AC3
Duration : 56 min 11 s
Bit rate mode : Constant
Bit rate : 384 kb/s
Channel(s) : 6 channels
Channel positions : Front: L C R, Side: L R, LFE
Sampling rate : 48.0 kHz
Frame rate : 31.250 FPS (1536 SPF)
Bit depth : 16 bits
Compression mode : Lossy
Stream size : 154 MiB (9%)
Title : films.club
Language : Russian
Service kind : Complete Main
Default : Yes
Forced : No

Audio #2
ID : 3
Format : E-AC-3
Format/Info : Enhanced Audio Coding 3
Format profile : E-AC-3+Atmos / E-AC-3
Format settings, Endianness : Big
Codec ID : A_EAC3
Duration : 56 min 11 s
Bit rate mode : Constant
Bit rate : 448 kb/s
Channel(s) : 15 objects / 6 channels
Channel positions : 15 objects / Front: L C R, Side: L R, LFE
Sampling rate : 48.0 kHz
Frame rate : 187.500 FPS (256 SPF)
Compression mode : Lossy
Stream size : 180 MiB (11%)
Title : English
Language : English
Service kind : Complete Main
Default : No
Forced : No

Text
ID : 4
Format : UTF-8
Codec ID : S_TEXT/UTF8
Codec ID/Info : UTF-8 Plain Text
Title : SDH
Language : English
Default : No
Forced : No
скриншот  скриншот  скриншот  
pb.wtf



Скачать Люк Кейдж через торрент http://i105.fastpic.ru/big/2018/0630/48/cca654b4f5ec59dc97007d99480ea348.png Скачать фильм Люк Кейдж через торрент бесплантно в хорошем качестве Описание: Оказавшись по ложному обвинению в тюрьме, Карл Лукас становится невольным участником научного эксперимента, в результате которого ... 10 10 1
Торрент: Зарегистрирован [2018-08-04 13:15] · скачан: 7 раз
Статус: √ проверено
Размер: 21.71 GB
Как cкачать? Как скачать Люк Кейдж через торрент | qTorrent

% Раздел Тема Автор DL S | L
Зарубежные сериалы [ 9.42 GB ] Люк Кейдж / Luke Cage / Сезон: 2 / Серии: 1-13 из 13 [2018 WEB-DLRip] MVO [NewStudio] bober100 Скачать
1 | 0
Зарубежные сериалы [ 136.72 GB ] Люк Кейдж / Luke Cage / Сезон: 2 / Серии: 1-13 из 13 [2018 UHD WEBRip 2160p] 2xMVO sheker187 Скачать
1 | 0
Зарубежные сериалы [ 12.56 GB ] Люк Кейдж / Luke Cage / Сезон: 2 / Серии 1-13 из 13 [2018 WEBRip 720p] [MVO] killermax2013 Скачать
1 | 0
Зарубежные сериалы [ 9.53 GB ] Люк Кейдж / Luke Cage / Сезон: 2 / Серии 1-13 из 13 [2018 WEBRip] [MVO] killermax2013 Скачать
1 | 0
Зарубежные сериалы [ 21.4 GB ] Люк Кейдж / Luke Cage / Сезон: 2 / Серии 1-13 из 13 [2018 WEBRip 1080p] [MVO] killermax2013 Скачать
1 | 0
Зарубежные сериалы [ 7.39 GB ] Люк Кейдж / Luke Cage / Сезон: 2 / Серии 1-13 из 13 [2018 WEBRip] [MVO] killermax2013 Скачать
1 | 0
Зарубежные сериалы [ 8.23 GB ] Люк Кейдж / Luke Cage / Сезон: 2 / Серии 1-13 из 13 [2018 WEBRip] [DVO] killermax2013 Скачать
1 | 0

28-11-2019 20:33  

Отключить всю рекламу на сайте

    Дорогой пользователь! Огромная просьба, поблагодарите релизера, оцените раздачу и оставьте свои комментарий, если Вы скачали Люк Кейдж через торрент бесплатно! Внесите свою лепту в развитие PiratBit!
    Комментировать посты могут только пользователи прошедшие не сложную регистрацию
    Показать сообщения:    

    Люк Кейдж через торрент
    Скачать бесплатно Люк Кейдж
    Люк Кейдж скачать торрент
    Люк Кейдж смотреть онлайн
    Cкачать фильм Люк Кейдж бесплатно
    Люк Кейдж скачать торрент в хорошем качестве
    Люк Кейдж смотреть онлайн бесплатно в хорошем качестве


    Вы не можете начинать темы
    Вы не можете отвечать на сообщения
    Вы не можете редактировать свои сообщения
    Вы не можете удалять свои сообщения
    Вы не можете голосовать в опросах
    Вы не можете прикреплять файлы к сообщениям
    Вы можете скачивать файлы