MEGA SALE -50% FORZA HORIZON 4 ULTIMATE+ВСЕ DLC+ОНЛАЙН всего за 599р. 299 руб. (супер цена). Внимание количество ограничено!!!

iTunes

1+1

iTunes

мы

iTunes

1

iTunes

Чернобыль

iTunes

Ральф против интернета

Лицензия

ПШазам

Лицензия

Игра престолов

Лицензия

30
pack

ВАЖНО

!!Акция!!

Alien_RageХит недели

RePack

Resident Evil 21

ИГРА 18+

pack

RePack

Metro:Exodus

!!Акция!!

Alien_Rage

RePack

fifa19

RePack

Assassins Creed: Odyssey

RePack

NEED FOR SPEED™ PAYBACK

3 сезон

9 сезон

Бесстыжие 9 сезон

Все сериалы

все сериалы на PB.wtf

RePack

FAR CRY 5
Ребята, катастрофически не хватает 7730р. для оплаты серверов за АВГУСТ (всвязи с блокировками трафик упал в 3 раза), 1-2р., выручайте.
  

Все в выигрыше / Everybody Wins (Карел Рейш) [1990 г., Триллер, драма, детектив, DVDRip-AVC, Профессиональный (многоголосый), авторский (Гаврилов)] от ExKinoRay pb.wtf

Все в выигрыше через торрент pb.wtf

Размер: 2.13 GB | Добавлен: 1 год 1 мес. назад | Торрент скачан:8 раз
Скачать  

04-08-2018 14:04 Все в выигрыше Скачать торрент  

Все в выигрыше / Everybody Wins
Год выпуска: 1990
Страна: США, Великобритания
Жанр: Триллер, драма, детектив
Продолжительность: 01:32:58
Перевод: Профессиональный (многоголосый)
Субтитры: Русские

Режиссер: Карел Рейш

Премьера в мире: 19 января 1990

rating

В ролях: Дебра Уингер, Ник Нолти, Уилл Пэттон, Джудит Айви, Кэтлин Уилхойт, Фрэнк Милитари

Описание: После знакомства с Анджелой Криспини у частного детектива Тома О`Тула наступили странные времена. Начатое им с неохотой дело об убийстве все сильнее и сильнее затягивало своей таинственностью. Пока не поглотило его целиком. Заинтригованный сообщением Анджелы о том, что она знает истинного убийцу, он не может добыть ни одного факта и, поначалу, обескуражен внезапной замкнутостью людей, предлагавших ему свою помощь. Кое-что начинает проясняться, когда он узнает, что Анджела была в близких отношениях со многими местными влиятельными людьми...

Доп. информация: Перевод: Профессиональный многоголосый, авторский (А. Гаврилов)

Качество: DVDRip-AVC
Формат: MKV
Видео кодек: MPEG4
Аудио кодек: AC3
Видео: MPEG-4 AVC, 2700 Кбит/с, 716x456@762x456, 25 кадров/сек
Аудио#1: Русский (AC3, 2 ch, 192 Кбит/с, 48 КГц)
Аудио#2: Русский (AC3, 2 ch, 192 Кбит/с, 48 КГц) - Гаврилов
Аудио#3: Английский (AC3, 2 ch, 192 Кбит/с, 48 КГц)
Релиз от:




avs [info]: 716x456p 16:15 @ 25/1 fps (cfr)
x264 [info]: using SAR=16/15
x264 [info]: using cpu capabilities: MMX2 SSE2Fast LZCNT
x264 [info]: profile High, level 4.1
x264 [info]: frame I:933 Avg QP:15.25 size: 60377
x264 [info]: frame P:26271 Avg QP:17.58 size: 29751
x264 [info]: frame B:112247 Avg QP:19.50 size: 9299
x264 [info]: consecutive B-frames: 1.0% 1.2% 3.6% 12.1% 8.4% 65.7% 4.6% 1.5% 0.9% 0.6% 0.1% 0.2% 0.0% 0.0% 0.0% 0.0% 0.1%
-----
Общее
Уникальный идентификатор : 244758607184814667278888392192034038572 (0xB822CB06CA88E0848C156E4722E3632C)
Полное имя : D:\ExKinoRayRips\Everybody.Wins.1990.DVDRip-AVC.ExKinoRay.mkv
Формат : Matroska
Версия формата : Version 2
Размер файла : 2,13 Гбайт
Продолжительность : 1 ч. 32 м.
Общий поток : 3277 Кбит/сек
Дата кодирования : UTC 2018-08-04 11:21:43
Программа кодирования : mkvmerge v7.8.0 ('River Man') 32bit built on Apr 3 2015 12:11:22
Библиотека кодирования : libebml v1.3.1 + libmatroska v1.4.2

Видео
Идентификатор : 1
Формат : AVC
Формат/Информация : Advanced Video Codec
Профиль формата : High@L4.1
Параметр CABAC формата : Да
Параметр ReFrames формата : 14 кадров
Идентификатор кодека : V_MPEG4/ISO/AVC
Продолжительность : 1 ч. 32 м.
Битрейт : 2700 Кбит/сек
Ширина : 716 пикселей
Высота : 456 пикселей
Соотношение сторон : 5:3
Соотношение сторон в оригинале : 5:3
Режим частоты кадров : Постоянный
Частота кадров : 25,000 кадров/сек
Цветовое пространство : YUV
Субдискретизация насыщенности : 4:2:0
Битовая глубина : 8 бит
Тип развёртки : Прогрессивная
Бит/(Пиксели*Кадры) : 0.331
Размер потока : 1,71 Гбайт (80%)
Библиотека кодирования : x264 core 148 r2638 7599210
Настройки программы : cabac=1 / ref=14 / deblock=1:-2:-2 / analyse=0x3:0x133 / me=umh / subme=10 / psy=1 / psy_rd=1.05:0.15 / mixed_ref=1 / me_range=32 / chroma_me=1 / trellis=2 / 8x8dct=1 / cqm=0 / deadzone=21,11 / fast_pskip=0 / chroma_qp_offset=-3 / threads=4 / lookahead_threads=1 / sliced_threads=0 / nr=0 / decimate=0 / interlaced=0 / bluray_compat=0 / constrained_intra=0 / bframes=16 / b_pyramid=2 / b_adapt=2 / b_bias=0 / direct=3 / weightb=1 / open_gop=0 / weightp=2 / keyint=250 / keyint_min=25 / scenecut=40 / intra_refresh=0 / rc=2pass / mbtree=0 / bitrate=2700 / ratetol=1.0 / qcomp=0.60 / qpmin=0 / qpmax=69 / qpstep=4 / cplxblur=20.0 / qblur=0.5 / ip_ratio=1.40 / pb_ratio=1.30 / aq=1:1.00
Язык : English
Default : Да
Forced : Нет
Цветовой диапазон : Limited
Основные цвета : BT.601 NTSC
Характеристики трансфера : BT.601
Коэффициенты матрицы : BT.601

Аудио #1
Идентификатор : 2
Формат : AC-3
Формат/Информация : Audio Coding 3
Расширение режима : CM (complete main)
Параметр Endianness формата : Big
Идентификатор кодека : A_AC3
Продолжительность : 1 ч. 32 м.
Вид битрейта : Постоянный
Битрейт : 192 Кбит/сек
Каналы : 2 канала
Расположение каналов : Front: L R
Частота : 48,0 КГц
Частота кадров : 31,250 кадров/сек (1536 spf)
Метод сжатия : С потерями
Размер потока : 128 Мбайт (6%)
Заголовок : Профессиональный
Язык : Russian
Default : Да
Forced : Нет

Аудио #2
Идентификатор : 3
Формат : AC-3
Формат/Информация : Audio Coding 3
Расширение режима : CM (complete main)
Параметр Endianness формата : Big
Идентификатор кодека : A_AC3
Продолжительность : 1 ч. 32 м.
Вид битрейта : Постоянный
Битрейт : 192 Кбит/сек
Каналы : 2 канала
Расположение каналов : Front: L R
Частота : 48,0 КГц
Частота кадров : 31,250 кадров/сек (1536 spf)
Метод сжатия : С потерями
Размер потока : 128 Мбайт (6%)
Заголовок : А. Гаврилов
Язык : Russian
Default : Нет
Forced : Нет

Аудио #3
Идентификатор : 4
Формат : AC-3
Формат/Информация : Audio Coding 3
Расширение режима : CM (complete main)
Параметр Endianness формата : Big
Идентификатор кодека : A_AC3
Продолжительность : 1 ч. 32 м.
Вид битрейта : Постоянный
Битрейт : 192 Кбит/сек
Каналы : 2 канала
Расположение каналов : Front: L R
Частота : 48,0 КГц
Частота кадров : 31,250 кадров/сек (1536 spf)
Метод сжатия : С потерями
Размер потока : 128 Мбайт (6%)
Язык : English
Default : Нет
Forced : Нет

Текст
Идентификатор : 5
Формат : UTF-8
Идентификатор кодека : S_TEXT/UTF8
Идентификатор кодека/Информация : UTF-8 Plain Text
Язык : Russian
Default : Нет
Forced : Нет

pb.wtf



Скачать Все в выигрыше через торрент http://d.radikal.ru/d43/1808/76/7ed02993d792.jpg Скачать фильм Все в выигрыше через торрент бесплантно в хорошем качестве Описание: После знакомства с Анджелой Криспини у частного детектива Тома О`Тула наступили странные времена. Начатое им с неохотой дело об ... 10 10 2
Info! Золотая раздача, скачанное не засчитывается.
Торрент: Зарегистрирован [2018-08-04 14:04] · скачан: 8 раз
Статус: √ проверено
Размер: 2.13 GB
Как cкачать? Как скачать Все в выигрыше через торрент | qTorrent


>> Регистрируемся здесь <<






Отзывы и комментарии о схеме читаем и пишем здесь: ---> Отзывы и комментарии о схеме

Новые благодарочки в телеграм довольных пользователей:
скриншот   скриншот   скриншот   скриншот   скриншот

04-08-2018 17:41 Все в выигрыше Скачать торрент  

Топик был перенесен из форума Оформление раздач (Кино, Видео и ТВ) в форум Фильмы до 2000 г.


schultzpb.wtf



    Дорогой пользователь! Огромная просьба, поблагодарите релизера, оцените раздачу и оставьте свои комментарий, если Вы скачали Все в выигрыше через торрент бесплатно! Внесите свою лепту в развитие PiratBit!
    Комментировать посты могут только пользователи прошедшие не сложную регистрацию
    Показать сообщения:    

    Все в выигрыше через торрент
    Скачать бесплатно Все в выигрыше
    Все в выигрыше скачать торрент
    Все в выигрыше смотреть онлайн
    Cкачать фильм Все в выигрыше бесплатно
    Все в выигрыше скачать торрент в хорошем качестве
    Все в выигрыше смотреть онлайн бесплатно в хорошем качестве


    Вы не можете начинать темы
    Вы не можете отвечать на сообщения
    Вы не можете редактировать свои сообщения
    Вы не можете удалять свои сообщения
    Вы не можете голосовать в опросах
    Вы не можете прикреплять файлы к сообщениям
    Вы можете скачивать файлы