Ссылка на приватное зеркало нашего сайта всего за 1$. Внимание количество ограничено!!!

2 сезон

iTunes

1 сезон

1

2 сезон

2 сезон

iTunes

1 сезон

RePack

30

Ultimate

ВАЖНО

ИГРА 18+

pack

RePack

MK11
pack

Забери бонус

RePack

jed

!!Акция!!

Alien_Rage

RePack

fifa19

RePack

Assassins Creed: Odyssey

RePack

NEED FOR SPEED™ PAYBACK

4 сезон

9 сезон

Бесстыжие 9 сезон

Все сериалы

все сериалы на PB.wtf

RePack

FAR CRY 5
  

Отец года / Father of the Year (Тайлер Спиндел) [2018, комедия, WEB-DL 1080p] MVO [HDRezka Studio] pb.wtf

Отец года через торрент pb.wtf

Размер: 9.47 GB | Добавлен: 2 года 3 мес. назад | Торрент скачан:55 раз
Скачать  

05-08-2018 05:59 Отец года Скачать торрент  

Отец года / Father of the Year«They've got one summer to make their kids proud»
Год выпуска: 2018
Страна: США
Жанр: комедия
Продолжительность: 01:34:38
Перевод: Профессиональный (многоголосый) | HDRezka Studio
Субтитры: Русские (полные), Английские (полные, SDH)

Режиссер: Тайлер Спиндел

rating

В ролях:

Дэвид Спейд, Нат Факсон, Джои Брагг, Мэтт Шайвли, Бриджит Мендлер, Билл Котткамп, Дин Уинтерс, Джаред Сэндлер, Кевин Нилон, Аллен Коверт

Описание:

Когда пьяный спор двух приятелей о том, чей отец победит в драке, воспринимаются серьезно одним из их отцов, дела идут под откос. Работа потеряна, дружеские отношения закончилась, будущее разрушено. В этой истории о двух выпускниках колледжа, проводящих последних несколько недель дома, прежде чем они переедут в Нью-Йорк, наши герои осознают то, кто их отцы на самом деле, когда они начинают видеть окружающий мир взрослыми глазами.

Качество: WEB-DL 1080p
Формат: MKV

Видео: 1920x1080 (16:9), 23,976 fps, x264 ~13 500 kbps avg, 0.271 bit/pixel
Аудио#1: 48 kHz, AC3 Dolby Digital, 2 (L,R) ch, ~192.00 kbps avg | RUS (HDRezka Studio)
Аудио#2: 48 kHz, E-AC3 Dolby Digital Plus, 3/2 (L,C,R,l,r) + LFE ch, ~640.00 kbps avg | ENG
скриншот  скриншот  скриншот  скриншот  скриншот  

Общее
Уникальный идентификатор : 133630867787220073704743222386270304020 (0x64885E753FE15ABD2E9D3601B5627714)
Полное имя : F:OlLanDGroupFather.of.the.Year.2018.WEB-DL(1080p).OlLanDGroup.mkv
Формат : Matroska
Версия формата : Version 4 / Version 2
Размер файла : 9,47 Гбайт
Продолжительность : 1 ч. 34 м.
Общий поток : 14,3 Мбит/сек
Название фильма : Father.of.the.Year.2018 #TorpedoUK#
Дата кодирования : UTC 2018-08-05 05:14:14
Программа кодирования : mkvmerge v25.0.0 ('Prog Noir') 64-bit
Библиотека кодирования : libebml v1.3.6 + libmatroska v1.4.9

Видео
Идентификатор : 1
Формат : AVC
Формат/Информация : Advanced Video Codec
Профиль формата : High@L4.1
Параметр CABAC формата : Да
Параметр ReFrames формата : 4 кадра
Идентификатор кодека : V_MPEG4/ISO/AVC
Продолжительность : 1 ч. 34 м.
Битрейт : 13,5 Мбит/сек
Ширина : 1920 пикселей
Высота : 1080 пикселей
Соотношение сторон : 16:9
Режим частоты кадров : Постоянный
Частота кадров : 23,976 (24000/1001) кадра/сек
Цветовое пространство : YUV
Субдискретизация насыщенности : 4:2:0
Битовая глубина : 8 бит
Тип развёртки : Прогрессивная
Бит/(Пиксели*Кадры) : 0.271
Размер потока : 8,92 Гбайт (94%)
Библиотека кодирования : x264 core 152 r2851kMod ba24899
Настройки программы : cabac=1 / ref=4 / deblock=1:-3:-3 / analyse=0x3:0x133 / me=umh / subme=10 / psy=1 / fade_compensate=0.00 / psy_rd=1.00:0.00 / mixed_ref=1 / me_range=48 / chroma_me=1 / trellis=2 / 8x8dct=1 / cqm=0 / deadzone=21,11 / fast_pskip=0 / chroma_qp_offset=-2 / threads=12 / lookahead_threads=2 / sliced_threads=0 / nr=0 / decimate=0 / interlaced=0 / bluray_compat=0 / constrained_intra=0 / bframes=8 / b_pyramid=2 / b_adapt=2 / b_bias=0 / direct=3 / weightb=1 / open_gop=0 / weightp=2 / keyint=250 / keyint_min=23 / scenecut=40 / intra_refresh=0 / rc=crf / mbtree=0 / crf=17.0000 / qcomp=0.60 / qpmin=0 / qpmax=69 / qpstep=4 / ip_ratio=1.30 / pb_ratio=1.20 / aq=3:0.80
Язык : English
Default : Да
Forced : Нет

Аудио #1
Идентификатор : 2
Формат : AC-3
Формат/Информация : Audio Coding 3
Расширение режима : CM (complete main)
Параметр Endianness формата : Big
Идентификатор кодека : A_AC3
Продолжительность : 1 ч. 34 м.
Вид битрейта : Постоянный
Битрейт : 192 Кбит/сек
Каналы : 2 канала
Расположение каналов : Front: L R
Частота : 48,0 КГц
Частота кадров : 31,250 кадров/сек (1536 spf)
Битовая глубина : 16 бит
Метод сжатия : С потерями
Размер потока : 130 Мбайт (1%)
Заголовок : MVO [HDRezka Studio]
Язык : Russian
Default : Да
Forced : Нет

Аудио #2
Идентификатор : 3
Формат : E-AC-3
Формат/Информация : Enhanced Audio Coding 3
Параметр Endianness формата : Big
Идентификатор кодека : A_EAC3
Продолжительность : 1 ч. 34 м.
Вид битрейта : Постоянный
Битрейт : 640 Кбит/сек
Каналы : 6 каналов
Расположение каналов : Front: L C R, Side: L R, LFE
Частота : 48,0 КГц
Частота кадров : 187,500 кадров/сек (256 spf)
Метод сжатия : С потерями
Размер потока : 433 Мбайт (4%)
Заголовок : Original
Язык : English
Default : Нет
Forced : Нет

Текст #1
Идентификатор : 4
Формат : UTF-8
Идентификатор кодека : S_TEXT/UTF8
Идентификатор кодека/Информация : UTF-8 Plain Text
Продолжительность : 1 ч. 28 м.
Битрейт : 118 бит/сек
Count of elements : 1519
Размер потока : 76,8 Кбайт (0%)
Заголовок : Full
Язык : Russian
Default : Нет
Forced : Нет

Текст #2
Идентификатор : 5
Формат : UTF-8
Идентификатор кодека : S_TEXT/UTF8
Идентификатор кодека/Информация : UTF-8 Plain Text
Продолжительность : 1 ч. 26 м.
Битрейт : 91 бит/сек
Count of elements : 1578
Размер потока : 58,2 Кбайт (0%)
Заголовок : Full
Язык : English
Default : Нет
Forced : Нет

Текст #3
Идентификатор : 6
Формат : UTF-8
Идентификатор кодека : S_TEXT/UTF8
Идентификатор кодека/Информация : UTF-8 Plain Text
Продолжительность : 1 ч. 26 м.
Битрейт : 98 бит/сек
Count of elements : 1676
Размер потока : 62,5 Кбайт (0%)
Заголовок : SDH
Язык : English
Default : Нет
Forced : Нет

pb.wtf



Скачать Отец года через торрент https://i102.fastpic.ru/big/2018/0805/b0/01935b1ac0eca5de802e39031b5ff2b0.jpg Скачать фильм Отец года через торрент бесплантно в хорошем качестве Описание: Когда пьяный спор двух приятелей о том, чей отец победит в драке, воспринимаются серьезно одним из их отцов, дела идут под откос. ... 7.8 10 4
Торрент: Зарегистрирован [2018-08-05 05:59] · скачан: 55 раз
Статус: T временная
Размер: 9.47 GB
Как cкачать? Как скачать Отец года через торрент | qTorrent

% Раздел Тема Автор DL S | L
T Фильмы 2018 [DVDrip, WEB-DLRip, HDrip] (DUB, MVO) [ 1.46 GB ] Отец года / Father of the Year [2018 WEB-DLRip] MVO [HDRezka Studio] bober100 Скачать
1 | 0
T Фильмы (WEB-DL 720p, 1080p) [ 4.74 GB ] Отец года / Father of the Year [2018 WEB-DL 720p] MVO [HDRezka Studio] bober100 Скачать
1 | 0

28-11-2019 20:33  

Отключить всю рекламу на сайте

    Дорогой пользователь! Огромная просьба, поблагодарите релизера, оцените раздачу и оставьте свои комментарий, если Вы скачали Отец года через торрент бесплатно! Внесите свою лепту в развитие PiratBit!
    Комментировать посты могут только пользователи прошедшие не сложную регистрацию
    Показать сообщения:    

    Отец года через торрент
    Скачать бесплатно Отец года
    Отец года скачать торрент
    Отец года смотреть онлайн
    Cкачать фильм Отец года бесплатно
    Отец года скачать торрент в хорошем качестве
    Отец года смотреть онлайн бесплатно в хорошем качестве


    Вы не можете начинать темы
    Вы не можете отвечать на сообщения
    Вы не можете редактировать свои сообщения
    Вы не можете удалять свои сообщения
    Вы не можете голосовать в опросах
    Вы не можете прикреплять файлы к сообщениям
    Вы можете скачивать файлы