Ссылка на приватное зеркало всего за 1$. Внимание количество ограничено!!!

OK

1+1

iTunes

мы

OK

1

WEB-DLRip

Джокер

Пифагор

Ведьмак / The Witcher сериал

iTunes

ПШазам

ОК

Оно 2

iTunes

30
pack

Вам бонус

ВАЖНО

!!Акция!!

Alien_RageХит недели

RePack

Resident Evil 21

ИГРА 18+

pack

RePack

jed

RePack

fifa19

RePack

Assassins Creed: Odyssey

RePack

NEED FOR SPEED™ PAYBACK

4 сезон

9 сезон

Бесстыжие 9 сезон

Все сериалы

все сериалы на PB.wtf

RePack

FAR CRY 5
  

Судьба: История Камакуры / Destiny: Kamakura monogatari (Такаси Ямадзаки) [2017 г., фэнтези, мелодрама, HDRip, Любительский (многоголосый)] [КОЛОБОК] pb.wtf

Судьба: История Камакуры через торрент pb.wtf

Размер: 2.05 GB | Добавлен: 1 год 5 мес. назад | Торрент скачан:70 раз
Скачать  

05-08-2018 09:14 Судьба: История Камакуры Скачать торрент  

Судьба: История Камакуры / Destiny: Kamakura monogatari
Год выпуска: 2017
Страна: Япония
Жанр: фэнтези, мелодрама
Продолжительность: 02:11:00
Перевод: Любительский (многоголосый) | КОЛОБОК
Субтитры: Отсутствуют

Режиссер: Такаси Ямадзаки

rating

В ролях: Дзюн Кунимура, Арата Фурута, Хироко Якусимару, Мицуки Такахата, Синъити Цуцуми, Тамао Накамура, Мин Танака, Масато Сакаи, Томокадзу Миура, Сакура Андо

Описание: Масакадзу Ишики - своеобразный писатель. Он живет со своей молодой женой Акико в Камакуре, Япония. Они расследуют загадочные случаи, происходящие вокруг них. Город в котором они живут, имеет давнюю таинственную историю. Это бывшая столица Японии, но как ходят слухи, здесь до сих пор чтят старые традиции и верят в сверхъестественные силы. Для баланса сил в природе созданы специальные отделы.

Качество: HDRip
Формат: AVI
Видео кодек: XviD
Аудио кодек: AC3
Видео: XviD, 720x304 , 23.9fps, 1783 Kbps
Аудио#1: AC3 , 2 ch , 48 kHz , 448 kbps
скриншот   скриншот   скриншот   скриншот  

Общее
Полное имя : D:Destiny.The.Tale.of.Kamakura.2017.Pk.HDRip.21OOMB.avi
Формат : AVI
Формат/Информация : Audio Video Interleave
Профиль формата : OpenDML
Размер файла : 2,05 Гбайт
Продолжительность : 2 ч. 11 м.
Общий поток : 2243 Кбит/сек
Программа кодирования : VirtualDubMod 1.5.10.2 (build 2540/release)
Библиотека кодирования : VirtualDubMod build 2540/release

Видео
Идентификатор : 0
Формат : MPEG-4 Visual
Профиль формата : Advanced Simple@L5
Параметр BVOP формата : 2
Параметр QPel формата : Нет
Параметр GMC формата : Без точки перехода
Параметр матрицы формата : Выборочная
Идентификатор кодека : XVID
Идентификатор кодека/Подсказка : XviD
Продолжительность : 2 ч. 11 м.
Битрейт : 1783 Кбит/сек
Ширина : 720 пикселей
Высота : 304 пикселя
Соотношение сторон : 2,35:1
Частота кадров : 23,976 кадра/сек
Цветовое пространство : YUV
Субдискретизация насыщенности : 4:2:0
Битовая глубина : 8 бит
Тип развёртки : Прогрессивная
Метод сжатия : С потерями
Бит/(Пиксели*Кадры) : 0.340
Размер потока : 1,63 Гбайт (79%)
Библиотека кодирования : XviD 1.2.1 (UTC 2008-12-04)

Аудио
Идентификатор : 1
Формат : AC-3
Формат/Информация : Audio Coding 3
Расширение режима : CM (complete main)
Параметр Endianness формата : Big
Идентификатор кодека : 2000
Продолжительность : 2 ч. 11 м.
Вид битрейта : Постоянный
Битрейт : 448 Кбит/сек
Каналы : 2 канала
Расположение каналов : Front: L R
Частота : 48,0 КГц
Битовая глубина : 16 бит
Метод сжатия : С потерями
Размер потока : 420 Мбайт (20%)
Выравнивание : Разделение по промежуткам
Продолжительность промежутка : 42 мс. (1,00 видеокадр)
Время предзагрузки промежутка : 500 мс.

pb.wtf



Скачать Судьба: История Камакуры через торрент http://pic1.kartinco.top/images/11/w99l9.jpg Скачать фильм Судьба: История Камакуры через торрент бесплантно в хорошем качестве Описание: Масакадзу Ишики - своеобразный писатель. Он живет со своей молодой женой Акико в Камакуре, Япония. Они расследуют загадочные ... 10 10 3
Торрент: Зарегистрирован [2018-08-05 09:14] · скачан: 70 раз
Статус: T временная
Размер: 2.05 GB
Как cкачать? Как скачать Судьба: История Камакуры через торрент | qTorrent

% Раздел Тема Автор DL S | L
# Фильмы (мультфильмы) cо спонсором показа (Новинки AVI/MKV) [ 6.13 GB ] Судьба: История Камакуры / Destiny: Kamakura monogatari [2017 BDRip 720p] MVO [КОЛОБОК] bober100 Скачать
1 | 0
T Фильмы (мультфильмы) cо спонсором показа (Новинки AVI/MKV) [ 1.37 GB ] Судьба: История Камакуры / Destiny: Kamakura monogatari [2017 HDRip] MVO [КОЛОБОК] bober100 Скачать
1 | 0

28-11-2019 20:33  

Отключить всю рекламу на сайте

    Дорогой пользователь! Огромная просьба, поблагодарите релизера, оцените раздачу и оставьте свои комментарий, если Вы скачали Судьба: История Камакуры через торрент бесплатно! Внесите свою лепту в развитие PiratBit!
    Комментировать посты могут только пользователи прошедшие не сложную регистрацию
    Показать сообщения:    

    Судьба: История Камакуры через торрент
    Скачать бесплатно Судьба: История Камакуры
    Судьба: История Камакуры скачать торрент
    Судьба: История Камакуры смотреть онлайн
    Cкачать фильм Судьба: История Камакуры бесплатно
    Судьба: История Камакуры скачать торрент в хорошем качестве
    Судьба: История Камакуры смотреть онлайн бесплатно в хорошем качестве


    Вы не можете начинать темы
    Вы не можете отвечать на сообщения
    Вы не можете редактировать свои сообщения
    Вы не можете удалять свои сообщения
    Вы не можете голосовать в опросах
    Вы не можете прикреплять файлы к сообщениям
    Вы можете скачивать файлы