Ссылка на приватное зеркало нашего сайта всего за 1$. Внимание количество ограничено!!!

2 сезон

iTunes

1 сезон

1

2 сезон

2 сезон

iTunes

1 сезон

RePack

30

Ultimate

ВАЖНО

ИГРА 18+

pack

RePack

MK11
pack

Забери бонус

RePack

jed

!!Акция!!

Alien_Rage

RePack

fifa19

RePack

Assassins Creed: Odyssey

RePack

NEED FOR SPEED™ PAYBACK

4 сезон

9 сезон

Бесстыжие 9 сезон

Все сериалы

все сериалы на PB.wtf

RePack

FAR CRY 5
  

Оранжевый - хит сезона / Orange Is the New Black / Сезон: 6 / Серии: 1-13 из 13 (Эндрю МакКарти, Фил Абрахам, Майкл Трим) [2018, Драма, комедия, криминал, WEBRip 1080p] MVO [NewStudio] pb.wtf

Оранжевый - хит сезона через торрент pb.wtf

Размер: 92.16 GB | Добавлен: 1 год 7 мес. назад | Торрент скачан:8 раз
Скачать  

05-08-2018 16:22 Оранжевый - хит сезона Скачать торрент  

Оранжевый - хит сезона / Orange Is the New Black Год выпуска: 2018
Страна: США
Жанр: Драма, комедия, криминал
Продолжительность: ~00:55:00
Перевод: Профессиональный (многоголосый закадровый) | NewStudio
Субтитры: Русские (Forced |на песни, испанскую речь и надписи|), английские (Full, SDH)

Режиссёр: Эндрю МакКарти, Фил Абрахам, Майкл Трим

В ролях:

Тейлор Шиллинг, Наташа Лионн, Узо Адуба, Даниэль Брукс, Джеки Круз, Лиа ДеЛария, Майкл Харни, Селенис Лейва, Тэрин Мэннинг, Эдриэнн С. Мур, Даша Поланко, Ник Сэндоу, Яэль Стоун, Самира Уайли, Кейт Малгрю, Лора Припон, Блэр Браун, Бет Довер, Кимико Гленн, Бет Фаулер, Энни Голден, Констанс Шульман, Лаура Гомез, Лаверн Кокс, Мэтт Питерс, Алан Айсинберг, Лори Петти, Брэд Уильям Хенке, Джолин Парди, Руби Роуз, Джеймс МакМенамин, Джон Магаро и др.

Описание:

В новом сезоне рассказывается про последствия трёхдневного Литчфилдского бунта, случившегося после смерти Пуссе Вашингтон, а отношения Пайпер и Алекс переходят на новый уровень.

rating

Качество: WEBRip 1080p
Формат: MKV

Видео: AVC, 1920x1080 (16:9), 23.976 fps, ~ 15 Mbps
Аудио №1: AC3, 6 ch, 48 kHz, 384 kbps | NewStudio*
Аудио №2: AC3, 6 ch, 48 kHz, 384 kbps | Original




Исходник: Orange.Is.the.New.Black.S06.1080p.NF.WEBRip.DDP5.1.x264-NTb
01. Who Knows Better Than I
02. Sh*tstorm Coming
03. Look Out for Number One
04. I'm the Talking Ass
Релиз от
General
Unique ID : 217117128100695419063898064452979906826 (0xA3573CE366676A3691AAC81AE9C1D90A)
Complete name : D:\Orange_Is_the_New_Black_(s06)_NewStudio_1080p\Orange.Is.the.New.Black.s06e01.WEBRip.1080p.mkv
Format : Matroska
Format version : Version 2
File size : 6.46 GiB
Duration : 54 min 49 s
Overall bit rate : 16.9 Mb/s
Encoded date : UTC 2018-08-03 16:16:02
Writing application : mkvmerge v4.9.1 ('Ich will') сборка от Jul 11 2011 23:53:15
Writing library : libebml v1.2.1 + libmatroska v1.1.1

Video
ID : 1
Format : AVC
Format/Info : Advanced Video Codec
Format profile : High@L4.1
Format settings : CABAC / 4 Ref Frames
Format settings, CABAC : Yes
Format settings, ReFrames : 4 frames
Codec ID : V_MPEG4/ISO/AVC
Duration : 54 min 49 s
Bit rate : 15.8 Mb/s
Width : 1 920 pixels
Height : 1 080 pixels
Display aspect ratio : 16:9
Frame rate mode : Constant
Frame rate : 23.976 (24000/1001) FPS
Color space : YUV
Chroma subsampling : 4:2:0
Bit depth : 8 bits
Scan type : Progressive
Bits/(Pixel*Frame) : 0.317
Stream size : 6.04 GiB (93%)
Writing library : x264 core 152 r2851kMod ba24899
Encoding settings : cabac=1 / ref=4 / deblock=1:-3:-3 / analyse=0x3:0x133 / me=umh / subme=10 / psy=1 / fade_compensate=0.00 / psy_rd=1.00:0.00 / mixed_ref=1 / me_range=48 / chroma_me=1 / trellis=2 / 8x8dct=1 / cqm=0 / deadzone=21,11 / fast_pskip=0 / chroma_qp_offset=-2 / threads=12 / lookahead_threads=2 / sliced_threads=0 / nr=0 / decimate=0 / interlaced=0 / bluray_compat=0 / constrained_intra=0 / bframes=8 / b_pyramid=2 / b_adapt=2 / b_bias=0 / direct=3 / weightb=1 / open_gop=0 / weightp=2 / keyint=250 / keyint_min=23 / scenecut=40 / intra_refresh=0 / rc=crf / mbtree=0 / crf=18.0000 / qcomp=0.60 / qpmin=0 / qpmax=69 / qpstep=4 / ip_ratio=1.30 / pb_ratio=1.20 / aq=3:0.80
Language : English
Default : Yes
Forced : No

Audio #1
ID : 2
Format : AC-3
Format/Info : Audio Coding 3
Codec ID : A_AC3
Duration : 54 min 49 s
Bit rate mode : Constant
Bit rate : 384 kb/s
Channel(s) : 6 channels
Channel positions : Front: L C R, Side: L R, LFE
Sampling rate : 48.0 kHz
Frame rate : 31.250 FPS (1536 SPF)
Bit depth : 16 bits
Compression mode : Lossy
Stream size : 151 MiB (2%)
Title : NewStudio
Language : Russian
Service kind : Complete Main
Default : Yes
Forced : No

Audio #2
ID : 3
Format : AC-3
Format/Info : Audio Coding 3
Codec ID : A_AC3
Duration : 54 min 49 s
Bit rate mode : Constant
Bit rate : 384 kb/s
Channel(s) : 6 channels
Channel positions : Front: L C R, Side: L R, LFE
Sampling rate : 48.0 kHz
Frame rate : 31.250 FPS (1536 SPF)
Bit depth : 16 bits
Compression mode : Lossy
Stream size : 151 MiB (2%)
Language : English
Service kind : Complete Main
Default : No
Forced : No

Text #1
ID : 4
Format : ASS
Codec ID : S_TEXT/ASS
Codec ID/Info : Advanced Sub Station Alpha
Compression mode : Lossless
Title : Forced
Language : Russian
Default : Yes
Forced : No

Text #2
ID : 5
Format : UTF-8
Codec ID : S_TEXT/UTF8
Codec ID/Info : UTF-8 Plain Text
Title : Full
Language : English
Default : No
Forced : No

Text #3
ID : 6
Format : UTF-8
Codec ID : S_TEXT/UTF8
Codec ID/Info : UTF-8 Plain Text
Title : SDH
Language : English
Default : No
Forced : No
При каждом добавлении создаётся новый торрент. Чтобы начать докачку новой серии, пользователям необходимо сделать следующее:
- остановить скачивание;
- удалить старый торрент у себя из клиента (старые серии удалять не надо);
- скачать новый торрент и запустить его у себя в клиенте вместо старого, при этом указать клиенту путь в старую папку, куда и должно происходить скачивание новых серий.
pb.wtf



Скачать Оранжевый - хит сезона через торрент http://pic1.kartinco.top/images/11/bfuzx.jpg Скачать фильм Оранжевый - хит сезона через торрент бесплантно в хорошем качестве Описание: В новом сезоне рассказывается про последствия трёхдневного Литчфилдского бунта, случившегося после смерти Пуссе Вашингтон, а ... 10 10 2
Info! Золотая раздача, скачанное не засчитывается.
Торрент: Зарегистрирован [2019-04-15 05:06] · скачан: 8 раз
Статус: √ проверено
Размер: 92.16 GB
Как cкачать? Как скачать Оранжевый - хит сезона через торрент | qTorrent

% Раздел Тема Автор DL S | L
Зарубежные сериалы [ 76.62 GB ] Оранжевый - хит сезона / Orange Is the New Black / Сезон: 6 / Серии: 1-13 из 13 [2018 WEBRip 1080p] MVO [TVShows] bober100 Скачать
1 | 0
Зарубежные сериалы [ 41.98 GB ] Оранжевый - хит сезона / Orange Is the New Black / Сезон: 6 / Серии: 1-13 из 13 [2018 WEBRip 720p] MVO [Jaskier] bober100 Скачать
1 | 0
Зарубежные сериалы [ 9.12 GB ] Оранжевый - хит сезона / Orange Is the New Black / Сезон: 6 / Серии: 1-13 из 13 [2018 WEBRip] MVO [Jaskier] bober100 Скачать
1 | 0
T Релизы по Парсеру [Игры, Сериалы и Фильмы и другое...] [ 31.47 GB ] Оранжевый - хит сезона /Orange Is the New Black / Сезон: 6 / Серии: 1-10 из 13 [2018 WEBRip 720p] DVO lic007 Скачать
1 | 0

28-11-2019 20:33  

Отключить всю рекламу на сайте

    Дорогой пользователь! Огромная просьба, поблагодарите релизера, оцените раздачу и оставьте свои комментарий, если Вы скачали Оранжевый - хит сезона через торрент бесплатно! Внесите свою лепту в развитие PiratBit!
    Комментировать посты могут только пользователи прошедшие не сложную регистрацию
    Показать сообщения:    

    Оранжевый - хит сезона через торрент
    Скачать бесплатно Оранжевый - хит сезона
    Оранжевый - хит сезона скачать торрент
    Оранжевый - хит сезона смотреть онлайн
    Cкачать фильм Оранжевый - хит сезона бесплатно
    Оранжевый - хит сезона скачать торрент в хорошем качестве
    Оранжевый - хит сезона смотреть онлайн бесплатно в хорошем качестве


    Вы не можете начинать темы
    Вы не можете отвечать на сообщения
    Вы не можете редактировать свои сообщения
    Вы не можете удалять свои сообщения
    Вы не можете голосовать в опросах
    Вы не можете прикреплять файлы к сообщениям
    Вы можете скачивать файлы