Ссылка на приватное зеркало всего за 1$. Внимание количество ограничено!!!

OK

1+1

iTunes

мы

OK

1

WEB-DLRip

Джокер

Пифагор

Ведьмак / The Witcher сериал

iTunes

ПШазам

ОК

Оно 2

iTunes

30
pack

Вам бонус

ВАЖНО

!!Акция!!

Alien_RageХит недели

RePack

Resident Evil 21

ИГРА 18+

pack

RePack

jed

RePack

fifa19

RePack

Assassins Creed: Odyssey

RePack

NEED FOR SPEED™ PAYBACK

4 сезон

9 сезон

Бесстыжие 9 сезон

Все сериалы

все сериалы на PB.wtf

RePack

FAR CRY 5
  

Планета зверей / Dong wu shi jie (Хань Янь) [2018, драма, боевик, фантастика, WEBRip 720p] DUB [Line] pb.wtf

Планета зверей через торрент pb.wtf

Раздают: 1 [ 0 KB/s ]
Размер: 4.4 GB | Добавлен: 1 год 5 мес. назад | Торрент скачан:285 раз
Скачать  

05-08-2018 18:01 Планета зверей Скачать торрент  

Планета зверей / Dong wu shi jie
Год выпуска: 2018
Страна: Китай
Жанр: драма, боевик, фантастика
Продолжительность: 02:06:48
Перевод: Дублированный | Line
Субтитры: китайские, английские (вшитые)

Режиссер: Хань Янь

rating

В ролях:

Ли Ифэн, Чжоу Дунъюй, Майкл Дуглас, Кевин Ли, Эрик Хейз, Альберто Ланселлотти

Описание:

Оказавшись по уши в долгах, главный герой решается на отчаянный шаг - принять участие в загадочных играх «Число судьбы», где главная ставка - жизнь!

Качество: WEBRip 720p
Формат: MKV

Видео: h.264, 4 585 kb/s, 1280x490
Аудио#1: Русский, (AC3, 2 ch, 384 Кбит/с)
скриншот  скриншот  скриншот  

Общее
Уникальный идентификатор : 181917067704215377297394959265103236063 (0x88DBF3EB44CF7BD6AEEBA4AEECDE4BDF)
Полное имя : D:\Animal.World.2018.D.WEBRip.72Op_KOSHARA.mkv
Формат : Matroska
Версия формата : Version 2
Размер файла : 4,40 Гбайт
Продолжительность : 2 ч. 6 м.
Режим общего битрейта : Переменный
Общий поток : 4970 Кбит/сек
Дата кодирования : UTC 2018-08-05 16:20:38
Программа кодирования : mkvmerge v8.3.0 ('Over the Horizon') 64bit
Библиотека кодирования : libebml v1.3.1 + libmatroska v1.4.2

Видео
Идентификатор : 1
Формат : AVC
Формат/Информация : Advanced Video Codec
Профиль формата : High@L4.1
Параметр CABAC формата : Да
Параметр RefFrames формата : 4 кадра
Идентификатор кодека : V_MPEG4/ISO/AVC
Продолжительность : 2 ч. 6 м.
Вид битрейта : Переменный
Битрейт : 4585 Кбит/сек
Максимальный битрейт : 5000 Кбит/сек
Ширина : 1280 пикселей
Высота : 490 пикселей
Соотношение сторон : 2,612
Режим частоты кадров : Постоянный
Частота кадров : 23,976 (24000/1001) кадра/сек
Стандарт вещания : Component
Цветовое пространство : YUV
Субдискретизация насыщенности : 4:2:0
Битовая глубина : 8 бит
Тип развёртки : Прогрессивная
Бит/(Пиксели*Кадры) : 0.298
Размер потока : 3,97 Гбайт (90%)
Default : Да
Forced : Нет
Цветовой диапазон : Limited
Основные цвета : BT.709
Характеристики трансфера : BT.709
Коэффициенты матрицы : BT.709

Аудио
Идентификатор : 2
Формат : AC-3
Формат/Информация : Audio Coding 3
Расширение режима : CM (complete main)
Параметр Endianness формата : Big
Идентификатор кодека : A_AC3
Продолжительность : 2 ч. 6 м.
Вид битрейта : Постоянный
Битрейт : 384 Кбит/сек
Каналы : 2 канала
Расположение каналов : Front: L R
Частота : 48,0 КГц
Частота кадров : 31,250 кадров/сек (1536 spf)
Метод сжатия : С потерями
Размер потока : 348 Мбайт (8%)
Default : Да
Forced : Нет

pb.wtf



Скачать Планета зверей через торрент https://img11.lostpic.net/2018/07/24/7ea5e0343ae8edb3cf1e668d7605f451.jpg Скачать фильм Планета зверей через торрент бесплантно в хорошем качестве Описание: Оказавшись по уши в долгах, главный герой решается на отчаянный шаг - принять участие в загадочных играх «Число судьбы», где ... 9.2 10 6
Торрент: Зарегистрирован [2018-08-05 18:01] · скачан: 285 раз
Статус: T временная
Размер: 4.4 GB
Как cкачать? Как скачать Планета зверей через торрент | qTorrent

% Раздел Тема Автор DL S | L
T Азиатские фильмы [ 3.59 GB ] Планета зверей / Animal World / Dong wu shi jie [2018 WEB-DL 1080p] MVO [HDrezka Studio] -Lexx- Скачать
7 | 0
T Азиатские фильмы [ 1.37 GB ] Планета зверей / Animal World / Dong wu shi jie [2018 WEB-DLRip] MVO [HDrezka Studio] bober100 Скачать
2 | 0
T Фильмы (мультфильмы) cо спонсором показа (Новинки AVI/MKV) [ 2.05 GB ] Планета зверей / Dong wu shi jie [2018 WEBRip] DUB [Line] bober100 Скачать
1 | 0
T Фильмы (мультфильмы) cо спонсором показа (Новинки AVI/MKV) [ 1.37 GB ] Планета зверей / Dong wu shi jie [2018 WEBRip] [Line] killermax2013 Скачать
1 | 1

28-11-2019 20:33  

Отключить всю рекламу на сайте

24-12-2018 19:45 Планета зверей Скачать торрент  

неплохоpb.wtf



12-06-2019 15:59 Планета зверей Скачать торрент  

Фильм класс))) Ещё бы продолжение...pb.wtf



    Дорогой пользователь! Огромная просьба, поблагодарите релизера, оцените раздачу и оставьте свои комментарий, если Вы скачали Планета зверей через торрент бесплатно! Внесите свою лепту в развитие PiratBit!
    Комментировать посты могут только пользователи прошедшие не сложную регистрацию
    Показать сообщения:    

    Планета зверей через торрент
    Скачать бесплатно Планета зверей
    Планета зверей скачать торрент
    Планета зверей смотреть онлайн
    Cкачать фильм Планета зверей бесплатно
    Планета зверей скачать торрент в хорошем качестве
    Планета зверей смотреть онлайн бесплатно в хорошем качестве


    Вы не можете начинать темы
    Вы не можете отвечать на сообщения
    Вы не можете редактировать свои сообщения
    Вы не можете удалять свои сообщения
    Вы не можете голосовать в опросах
    Вы не можете прикреплять файлы к сообщениям
    Вы можете скачивать файлы