Всегда рабочее зеркало без VPN и Proxy просто перед .vidak.icu напиши любое слово или цифру, Пример http://nss9.vidak.icu

Лицензия

MVO

1 сезон

1

1 сезон

iTunes

1 сезон

13

1 сезон

Deluxe

pack

Рекомендуем

Repack

30

ВАЖНО

RePack

MK11

RePack

jed

RePack

fifa19

RePack

RDR2

RePack

NEED FOR SPEED™ PAYBACK

Кинопоиск HD

6 сезон

 Острые козырьки 6 сезон

Все сериалы

все сериалы на PB.wtf

RePack

FAR CRY 5
  
Magnet ссылка

Хищник / Predator (Джон МакТирнан) [1987, фантастика, боевик, триллер, UHD BDRip 2160p] DUB + MVO [Киномания] pb.wtf

Хищник через торрент pb.wtf

Размер: 33.44 GB | Добавлен: 4 года назад | Торрент скачан:33 раза
Смотреть онлайн Хищник | Скачать    Ребята, помогите собрать деньги на оплату серверов!!!

05-08-2018 18:42 Хищник Скачать торрент  

Хищник / Predator

Год выпуска: 1987
Страна: США
Жанр: фантастика, боевик, триллер
Продолжительность: 01:46:35
Перевод: Дублированный, профессиональный многоголосый
Субтитры: Русские (Полные (BD CEE)), Полные (Дмитрий "Гоблин" Пучков)-ненорматив, английские (Full)
Режиссер: Джон МакТирнан
В ролях:

Арнольд Шварценеггер (Dutch), Карл Уэзерс (Dillon), Эльпидия Каррильо (Anna), Билл Дьюк (Mac), Джесси Вентура (Blain), Сонни Лэндэм (Billy), Ричард Чавес (Poncho), Р.Г. Армстронг (Gen. Phillips), Шейн Блэк (Hawkins), Кевин Питер Холл (The Predator / Helicopter Pilot), Стив Бойум (Hostage Executed by the Russian, в титрах не указан), Уильям Х. Бертон (Guerilla Soldier Shot Down from Tree, в титрах не указан)
Описание:
Американский вертолет был сбит партизанами в Южной Америке. Оставшийся в живых экипаж находится в плену. Центральное разведывательное управление США бросает свои лучшие силы для освобождения американских граждан.
Рейтинг:

MPAA: R - Лицам до 17 лет обязательно присутствие взрослого
Качество: UHD BDRip 2160p
Формат: MKV
Видео: HEVC, HDR, 38100 Кбит/с, 3840x2076, 23.976 кадр/с
Аудио 1: Русский / AC3 / 48 KHz / 5.1 ch / 640 Kbps (Дубляж - BD CEE)
Аудио 2: Русский / AC3 / 48 KHz / 5.1 ch / 640 Kbps (MVO - Киномания)
Аудио 3: Украинский / AC3 / 48 KHz / 5.1 ch / 384 Kbps (MVO - ICTV)
Аудио 4: Английский / DTS-HD MA / 48 KHz / 5.1 ch / 4500 Kbps (Original - BD CEE)
Аудио 5: Английский / AC3 / 48 KHz / 5.1 ch / 640 Kbps (Original - BD CEE)
Навигация по главам: есть
Жан-Клод Ван Дамм должен был сыграть Хищника, но после двух дней съёмок покинул проект, т. к. не хотел быть «ходячим спецэффектом». На его место пришел Кевин Питер Холл.
Создатели фильма пытались снять сцену, в которой Хищник должен был прыгать с дерева на дерево. Для этой цели хотели использовать обезьяну, одетую в специальный красный костюм. Однако, обезьяна постоянно пыталась избавиться от неудобного наряда. В конце концов, от данной идеи пришлось отказаться.
Идея внешнего вида нижней челюсти Хищника принадлежит Джеймсу Кэмерону.
Первоначальное название фильма — «Охотник» (Hunter).
Изначально предполагалось, что Хищник будет существом с длинной шеей; головой, по форме напоминающей собачью голову; и с большим глазом посередине лица. Дизайн пришельца подвергся существенной переработке, после того как на проект пришёл Стэн Уинстон.
Два водопада, которые появляются в фильме незадолго до финала, находятся недалеко от Паленке, Мексика.
Черный пилот вертолета в конце фильма — это Кевин Питер Холл, сыгравший Хищника.
Идея фильма возникла благодаря шутке: однажды кто-то сказал, что единственное существо, с которым еще не дрался Рокки Бальбоа, — это инопланетянин из фильма Стивена Спилберга.
Два актера, сыгравших коммандос, позднее были выбраны на пост губернатора штата: Джесси Вентура стал губернатором Миннесоты в 1998 году, Арнольд Шварценеггер был выбран губернатором Калифорнии в 2003 году. Также Сонни Лендхэм баллотировался на пост губернатора штат Кентукки, но проиграл выборы.
Оружие Блэйна (Джесси Вентура) — миниган. Данный пулемет монтируется на вертолеты или самолеты, поэтому в него пришлось внести множество изменений, для того чтобы сделать возможным его использование в фильме. Не смотря на то, что на съёмках миниган стрелял холостыми, Вентуре приходилось надевать бронежилет для защиты от вылетающих гильз.
Если бы на съёмках использовались боевые патроны, то отдача составила бы примерно силу, равную в 110 килограмм. Боеприпасы для двадцатисекундной сцены стрельбы должны были составить: 2000 патронов х 12,5 грамм (вес каждой пули) = 25 килограмм, и весь этот боекомплект должен был поместиться в рюкзаке Вентуры.
Сонни Лендхэм получил роль в этом фильме с одним условием: страховая компания настояла на том, чтобы круглые сутки около Лендхэма находился телохранитель. Однако, телохранитель должен был охранять не его, а других актеров, т. к. Сонни был большим любителем подраться.
Шэйн Блэк, сыгравший Хоукинса, также является успешным автором, на счету которого сценарии к таким фильмам, как «Смертельное оружие» (1987), «Последний бойскаут» (1991), «Долгий поцелуй на ночь» (1996), «Поцелуй навылет» (2005).
Джон МакТирнан за время съёмок в Мексике похудел на 25 фунтов (примерно 11,4 кг).
Во время съёмок Джон МакТирнан сломал запястье.
Джон МакТирнан признал, что Р. Г. Армстронг был слишком стар для своей роли. Гримерам пришлось покрыть лицо Армстронга ни одним слоем грима, для того чтобы скрыть его возраст.
Из-за соблюдения техники безопасности Арнольд Шварценеггер не мог прикуривать сигару внутри вертолета. Небольшой красный огонек был добавлен к сигаре с помощью компьютерных эффектов.
Джесси Вентура несказанно обрадовался, узнав, что объём его бицепса больше, чем у Арнольда Шварценеггера. Во время съёмок он предложил Арнольду измерить объемы их рук, победитель должен был получить бутылку шампанского. К большому удивлению Вентуры оказалось, что бицепс Шварценеггера больше. Дело в том, что Арнольд специально подговорил костюмеров, сообщивших Вентуре ложную информацию.
Во время финальных титров можно заметить, что Шэйн Блэк читает комикс «Сержант Рок» (Sgt. Rock). В конце 1980-х гг. предполагалось, что Шварценеггер сыграет главную роль в экранизации данного комикса, поэтому Арни притащил на съёмочную площадку множество выпусков «Сержанта».
Для своей роли Арнольд Шварценеггер похудел на 25 фунтов (примерно 11,3 кг).
Миниган, который носил Блэйн (Джесси Вентура), стрелял с такой высокой скоростью, что команде по спецэффектам пришлось замедлить вращение ствола, для того чтобы было видно, что пулемет действительно работает.
«Хищник» — актерский дебют для Джесси Вентуры и Шэйна Блэка.
Встречающийся в фильме ручной шестиствольный пулемёт системы Гатлинга — на самом деле устанавливается только на вертолётах или прочей самоходной технике и требует источника электроэнергии для приведения в действие. Скорострельность такого пулемёта такова, что стрелок просто будет не в состоянии удержать пулемёт при отдаче. А боезапас, который мог бы переносить один боец, расстреливается за 15-20 секунд. В специально изготовленном для съёмок пулемёте «Миниган» ХМ-214 (стрелявшем только холостыми) скорострельность была искусственно снижена до 2000 выстрелов в минуту, а кабель питания был спрятан в брюках актёра; чтобы удержать пулемёт, актёр опирался на подпорку, которую, естественно не видно. спойлер
ошибка
В сцене «термовидения», в которой Хищник рассматривает убитого скорпиона, можно увидеть дату съемки этой сцены — 12:19 22 мая 1986 года.
Шэйн Блэк, сыгравший Хоукинса, на съемках в свободное время писал сценарий к фильму «Последний Бойскаут» (1991).
Оскар, 1988 год
Номинации (1):
Лучшие визуальные эффекты

Сатурн, 1988 год
Победитель (1):
Лучшая музыка
Номинации (3):
Лучший научно-фантастический фильм
Лучший актер (Арнольд Шварценеггер)
Лучшие спецэффекты
Общее
Уникальный идентификатор : 251728855902349237336182568372475771073 (0xBD6136D232B214088845F1FC2703B8C1)
Полное имя : D:\Передел\Predator.1987.2160p.UHD.BluRay.10bit.HEVC.HDR.4K.x265.Master5.mkv
Формат : Matroska
Версия формата : Version 4 / Version 2
Размер файла : 33,4 Гбайт
Продолжительность : 1 ч. 46 м.
Общий поток : 44,9 Мбит/сек
Название фильма : Predator.1987.2160p.UHD.BluRay.10bit.HEVC.HDR.4K.x265.Master5
Дата кодирования : UTC 2018-08-05 17:09:01
Программа кодирования : mkvmerge v7.9.0 ('Birds') 64bit
Библиотека кодирования : libebml v1.3.1 + libmatroska v1.4.2

Видео
Идентификатор : 1
Формат : HEVC
Формат/Информация : High Efficiency Video Coding
Коммерческое название : HDR10
Профиль формата : Main [email protected]@High
Идентификатор кодека : V_MPEGH/ISO/HEVC
Продолжительность : 1 ч. 46 м.
Битрейт : 38,1 Мбит/сек
Ширина : 3840 пикселей
Высота : 2076 пикселей
Соотношение сторон : 1,85:1
Режим частоты кадров : Постоянный
Частота кадров : 23,976 (24000/1001) кадра/сек
Цветовое пространство : YUV
Субдискретизация насыщенности : 4:2:0 (Type 2)
Битовая глубина : 10 бит
Бит/(Пиксели*Кадры) : 0.199
Размер потока : 28,4 Гбайт (85%)
Заголовок : Predator.1987.2160p.UHD.BluRay.10bit.HEVC.HDR.4K.x265.Master5
Библиотека кодирования : x265 2.8+10-703eade86b53:[Windows][GCC 8.1.0][64 bit] 10bit
Настройки программы : cpuid=1176575 / frame-threads=6 / numa-pools=32 / wpp / no-pmode / no-pme / no-psnr / no-ssim / log-level=2 / input-csp=1 / input-res=3840x2076 / interlace=0 / total-frames=153312 / level-idc=51 / high-tier=1 / uhd-bd=0 / ref=4 / no-allow-non-conformance / repeat-headers / annexb / aud / hrd / info / hash=0 / no-temporal-layers / no-open-gop / min-keyint=24 / keyint=240 / gop-lookahead=0 / bframes=4 / b-adapt=2 / b-pyramid / bframe-bias=0 / rc-lookahead=25 / lookahead-slices=4 / scenecut=40 / radl=0 / no-intra-refresh / ctu=64 / min-cu-size=8 / rect / no-amp / max-tu-size=32 / tu-inter-depth=1 / tu-intra-depth=1 / limit-tu=0 / rdoq-level=2 / dynamic-rd=0.00 / no-ssim-rd / signhide / no-tskip / nr-intra=0 / nr-inter=0 / no-constrained-intra / no-strong-intra-smoothing / max-merge=3 / limit-refs=3 / limit-modes / me=3 / subme=3 / merange=57 / temporal-mvp / weightp / no-weightb / no-analyze-src-pics / deblock=-3:-3 / no-sao / no-sao-non-deblock / rd=4 / no-early-skip / rskip / no-fast-intra / no-tskip-fast / no-cu-lossless / no-b-intra / no-splitrd-skip / rdpenalty=0 / psy-rd=2.00 / psy-rdoq=1.00 / no-rd-refine / no-lossless / cbqpoffs=0 / crqpoffs=0 / rc=crf / crf=19.5 / qcomp=0.60 / qpstep=4 / stats-write=0 / stats-read=0 / vbv-maxrate=160000 / vbv-bufsize=160000 / vbv-init=0.9 / crf-max=0.0 / crf-min=0.0 / ipratio=1.40 / pbratio=1.30 / aq-mode=1 / aq-strength=1.00 / cutree / zone-count=0 / no-strict-cbr / qg-size=32 / no-rc-grain / qpmax=69 / qpmin=0 / no-const-vbv / sar=1 / overscan=0 / videoformat=5 / range=0 / colorprim=9 / transfer=16 / colormatrix=9 / chromaloc=1 / chromaloc-top=2 / chromaloc-bottom=2 / display-window=0 / master-display=G(13250,34500)B(7500,3000)R(34000,16000)WP(15635,16450)L(10000000,50) / max-cll=0,0 / min-luma=0 / max-luma=1023 / log2-max-poc-lsb=8 / vui-timing-info / vui-hrd-info / slices=1 / no-opt-qp-pps / no-opt-ref-list-length-pps / no-multi-pass-opt-rps / scenecut-bias=0.05 / no-opt-cu-delta-qp / no-aq-motion / hdr / hdr-opt / no-dhdr10-opt / no-idr-recovery-sei / analysis-reuse-level=5 / scale-factor=0 / refine-intra=0 / refine-inter=0 / refine-mv=0 / no-limit-sao / ctu-info=0 / no-lowpass-dct / refine-mv-type=0 / copy-pic=1 / max-ausize-factor=1.0 / no-dynamic-refine / no-single-sei
Default : Да
Forced : Нет
Цветовой диапазон : Limited
Основные цвета : BT.2020
Характеристики трансфера : PQ
Коэффициенты матрицы : BT.2020 non-constant
MasteringDisplay_ColorPrimaries : Display P3
MasteringDisplay_Luminance : min: 0.0050 cd/m2, max: 1000 cd/m2

Аудио #1
Идентификатор : 2
Формат : AC-3
Формат/Информация : Audio Coding 3
Идентификатор кодека : A_AC3
Продолжительность : 1 ч. 46 м.
Вид битрейта : Постоянный
Битрейт : 640 Кбит/сек
Каналы : 6 каналов
Расположение каналов : Front: L C R, Side: L R, LFE
Частота : 48,0 КГц
Частота кадров : 31,250 кадров/сек (1536 SPF)
Битовая глубина : 16 бит
Метод сжатия : С потерями
Размер потока : 488 Мбайт (1%)
Заголовок : Дубляж - BD CEE
Язык : Russian
ServiceKind/String : Complete Main
Default : Да
Forced : Нет

Аудио #2
Идентификатор : 3
Формат : AC-3
Формат/Информация : Audio Coding 3
Идентификатор кодека : A_AC3
Продолжительность : 1 ч. 46 м.
Вид битрейта : Постоянный
Битрейт : 640 Кбит/сек
Каналы : 6 каналов
Расположение каналов : Front: L C R, Side: L R, LFE
Частота : 48,0 КГц
Частота кадров : 31,250 кадров/сек (1536 SPF)
Битовая глубина : 16 бит
Метод сжатия : С потерями
Размер потока : 488 Мбайт (1%)
Заголовок : Многоголосый закадровый - Киномания
Язык : Russian
ServiceKind/String : Complete Main
Default : Нет
Forced : Нет

Аудио #3
Идентификатор : 4
Формат : AC-3
Формат/Информация : Audio Coding 3
Идентификатор кодека : A_AC3
Продолжительность : 1 ч. 46 м.
Вид битрейта : Постоянный
Битрейт : 384 Кбит/сек
Каналы : 6 каналов
Расположение каналов : Front: L C R, Side: L R, LFE
Частота : 48,0 КГц
Частота кадров : 31,250 кадров/сек (1536 SPF)
Битовая глубина : 16 бит
Метод сжатия : С потерями
Размер потока : 293 Мбайт (1%)
Заголовок : Многоголосый закадровый - ICTV
Язык : Ukrainian
ServiceKind/String : Complete Main
Default : Нет
Forced : Нет

Аудио #4
Идентификатор : 5
Формат : DTS
Формат/Информация : Digital Theater Systems
Профиль формата : MA / Core
Идентификатор кодека : A_DTS
Продолжительность : 1 ч. 46 м.
Вид битрейта : Переменный / Постоянный
Битрейт : 4500 Кбит/сек / 1509 Кбит/сек
Каналы : 6 каналов
Расположение каналов : Front: L C R, Side: L R, LFE
Частота : 48,0 КГц
Частота кадров : 93,750 кадра/сек (512 SPF)
Битовая глубина : 24 бит
Метод сжатия : Без потерь / Lossy
Размер потока : 3,35 Гбайт (10%)
Заголовок : DTS-HD MA 5.1
Язык : English
Default : Нет
Forced : Нет

Аудио #5
Идентификатор : 6
Формат : AC-3
Формат/Информация : Audio Coding 3
Идентификатор кодека : A_AC3
Продолжительность : 1 ч. 46 м.
Вид битрейта : Постоянный
Битрейт : 640 Кбит/сек
Каналы : 6 каналов
Расположение каналов : Front: L C R, Side: L R, LFE
Частота : 48,0 КГц
Частота кадров : 31,250 кадров/сек (1536 SPF)
Битовая глубина : 16 бит
Метод сжатия : С потерями
Размер потока : 488 Мбайт (1%)
Заголовок : Original - BD 3D CEE
Язык : English
ServiceKind/String : Complete Main
Default : Нет
Forced : Нет

Текст #1
Идентификатор : 7
Формат : UTF-8
Идентификатор кодека : S_TEXT/UTF8
Идентификатор кодека/Информация : UTF-8 Plain Text
Продолжительность : 1 ч. 45 м.
Битрейт : 30 бит/сек
ElementCount : 415
Размер потока : 23,4 Кбайт (0%)
Заголовок : Полные (BD CEE)
Язык : Russian
Default : Да
Forced : Нет

Текст #2
Идентификатор : 8
Формат : UTF-8
Идентификатор кодека : S_TEXT/UTF8
Идентификатор кодека/Информация : UTF-8 Plain Text
Продолжительность : 1 ч. 40 м.
Битрейт : 38 бит/сек
ElementCount : 556
Размер потока : 28,2 Кбайт (0%)
Заголовок : (Гоблин-Пучков-ненорматив)
Язык : Russian
Default : Нет
Forced : Нет

Текст #3
Идентификатор : 9
Формат : UTF-8
Идентификатор кодека : S_TEXT/UTF8
Идентификатор кодека/Информация : UTF-8 Plain Text
Продолжительность : 1 ч. 37 м.
Битрейт : 20 бит/сек
ElementCount : 433
Размер потока : 14,9 Кбайт (0%)
Заголовок : Eng Full
Язык : English
Default : Нет
Forced : Нет

Меню
00:00:00.000 : en:00:00:00.000
00:04:03.869 : en:00:04:03.869
00:06:29.222 : en:00:06:29.222
00:10:32.048 : en:00:10:32.048
00:18:20.766 : en:00:18:20.766
00:20:21.137 : en:00:20:21.137
00:27:51.920 : en:00:27:51.920
00:31:03.862 : en:00:31:03.862
00:34:53.300 : en:00:34:53.300
00:37:49.184 : en:00:37:49.184
00:41:00.416 : en:00:41:00.416
00:46:32.957 : en:00:46:32.957
00:53:08.227 : en:00:53:08.227
01:01:36.943 : en:01:01:36.943
01:04:08.303 : en:01:04:08.303
01:08:09.460 : en:01:08:09.460
01:14:09.904 : en:01:14:09.904
01:15:49.754 : en:01:15:49.754
01:18:26.911 : en:01:18:26.911
01:20:54.433 : en:01:20:54.433
01:25:08.812 : en:01:25:08.812
01:34:31.374 : en:01:34:31.374
01:35:48.660 : en:01:35:48.660
01:39:58.201 : en:01:39:58.201
01:42:55.711 : en:01:42:55.711
pb.wtf



Скачать Хищник через торрент https://c.radikal.ru/c24/1808/1d/a4d6b9df1a58.png Скачать, смотреть онлайн Хищник бесплантно в хорошем качестве Описание: Американский вертолет был сбит партизанами в Южной Америке. Оставшийся в живых экипаж находится в плену. Центральное ... 10 10 6
Info! Золотая раздача, скачанное не засчитывается.
Торрент: Зарегистрирован [2018-08-05 18:42] · скачан: 33 раз
Статус: √ проверено
Размер: 33.44 GB
Как cкачать? Как скачать Хищник через торрент | UTorrent

% Раздел Тема Автор DL S | L
Ultra HD (UHD: 2K, 4K, 8K) — видео сверхвысокой чёткости [ 190.41 GB ] Хищник / The Predator: Quadrilogy [1987-2018 UHD BDRemux 2160p] DUB sheker187 Скачать
1 | 0
Фильмы (WEB-DL 720p, 1080p) [ 8.76 GB ] Хищники / I predatori [2020 WEB-DL 1080p] [MVO] killermax2013 Скачать
1 | 0
Фильмы 2019-2020 [DVDrip, WEB-DLRip, HDrip] (DUB, MVO) [ 1.46 GB ] Хищники / I predatori [2020 WEB-DLRip] [MVO] killermax2013 Скачать
1 | 0
Фильмы 2019-2020 [DVDrip, WEB-DLRip, HDrip] (DUB, MVO) [ 710 MB ] Хищники / I predatori [2020 WEB-DLRip многоголосый закадровый ""] coc900 Скачать
1 | 0
Фильмы 2006-2008 [ 2.23 GB ] Чужие Против Хищника: Реквием / Aliens Vs. Predator: Requiem [2007 WEB-DLRip-AVC Dub AVO][Open Matte] от ExKinoRay morfyi Скачать
1 | 0
Фильмы 2010 [ 4.85 GB ] Хищники / Predators [2010 WEB-DLRip-AVC Dub 5 x AVO VO][Open Matte] от ExKinoRay morfyi Скачать
1 | 0
Сборники (HD Video) [ 86.17 GB ] Хищник: Коллекция / Predator: Collection [1987-2018 BDRip 1080p] DUB+MVO+DVO+AVO bober100 Скачать
1 | 2

28-11-2019 20:33  

Отключить вcю реклaмy на сайте

    Дорогой пользователь! Огромная просьба, поблагодарите релизера, оцените раздачу и оставьте свои комментарий, если Вы скачали Хищник через торрент бесплатно!
    Комментировать посты могут только пользователи прошедшие не сложную регистрацию
    Показать сообщения:    

    Хищник через торрент
    Скачать бесплатно Хищник
    Хищник скачать торрент
    Хищник смотреть онлайн
    Cкачать фильм Хищник бесплатно
    Хищник скачать торрент в хорошем качестве
    Хищник смотреть онлайн бесплатно в хорошем качестве


    Вы не можете начинать темы
    Вы не можете отвечать на сообщения
    Вы не можете редактировать свои сообщения
    Вы не можете удалять свои сообщения
    Вы не можете голосовать в опросах
    Вы не можете прикреплять файлы к сообщениям
    Вы можете скачивать файлы