Ссылка на приватное зеркало всего за 1$. Внимание количество ограничено!!!

iTunes

1+1

iTunes

мы

WEB-DL

1

iTunes

Чернобыль

iTunes

Ральф против интернета

Лицензия

ПШазам

Лицензия

Оно 2

Лицензия

30
pack

Вам бонус

ВАЖНО

!!Акция!!

Alien_RageХит недели

RePack

Resident Evil 21

ИГРА 18+

pack

RePack

jed

!!Акция!!

Alien_Rage

RePack

fifa19

RePack

Assassins Creed: Odyssey

RePack

NEED FOR SPEED™ PAYBACK

3 сезон

9 сезон

Бесстыжие 9 сезон

Все сериалы

все сериалы на PB.wtf

RePack

FAR CRY 5
Ребята, катастрофически не хватает 1900р. для оплаты серверов за Октябрь (всвязи с блокировками трафик упал в 3 раза), 1-2р., выручайте.
  

Дыши во мгле / Dans la brume (Дэниэл Роби) [2018, Фантастика, триллер, приключения, BDRip-AVC] DUB [iTunes] pb.wtf

Дыши во мгле через торрент pb.wtf

Размер: 1.4 GB | Добавлен: 1 год 4 мес. назад | Торрент скачан:338 раз
Скачать  

06-08-2018 05:22 Дыши во мгле Скачать торрент  

Дыши во мгле / Dans la brume
Год выпуска: 2018
Страна: Франция, Канада
Жанр: Фантастика, триллер, приключения
Продолжительность: 01:29:01
Перевод: Дублированный | iTunes
Субтитры: отсутствуют

Режиссер: Дэниэл Роби

rating

В ролях:

Ромен Дюрис, Ольга Куриленко, Фантина Ардуин, Мишель Робен, Анна Гейлор, Эрья Малатье, Алексис Маненти, Морис Антони, Робин Бард

Описание:

После внезапного землетрясения туман, убивающий все живое, окутывает Париж. Немногие из оставшихся в живых забираются за чистым воздухом на крыши зданий: без связи, воды и еды они все еще надеются на помощь. Анна и Мэттью пойдут на все, чтобы спасти свою дочь, но для этого им придется спуститься в самую гущу опасной мглы.

Качество: BDRip-AVC
Формат: MKV

Видео: 720x302 (2.40:1), 24.000 fps, x264 ~1 897 kbps avg, 0.364 bit/pixel
Аудио: 48 kHz, AC3 Dolby Digital, 3/2 (L,C,R,l,r) + LFE ch, ~384.00 kbps avg | RUS (iTunes)
скриншот  скриншот  скриншот  скриншот  скриншот  

Общее
Уникальный идентификатор : 65558642987739201699318919645550220828 (0x315222A73CE75D818015C9BAED96161C)
Полное имя : F:\OlLanDGroup\Dans.la.Brume.2018.BDRip(AVC).OlLanDGroup.mkv
Формат : Matroska
Версия формата : Version 4 / Version 2
Размер файла : 1,40 Гбайт
Продолжительность : 1 ч. 29 м.
Общий поток : 2257 Кбит/сек
Название фильма : Dans.la.Brume.2018 #TorpedoUK#
Дата кодирования : UTC 2018-08-06 04:40:00
Программа кодирования : mkvmerge v25.0.0 ('Prog Noir') 64-bit
Библиотека кодирования : libebml v1.3.6 + libmatroska v1.4.9

Видео
Идентификатор : 1
Формат : AVC
Формат/Информация : Advanced Video Codec
Профиль формата : High@L4.1
Параметр CABAC формата : Да
Параметр ReFrames формата : 10 кадров
Идентификатор кодека : V_MPEG4/ISO/AVC
Продолжительность : 1 ч. 29 м.
Битрейт : 1897 Кбит/сек
Ширина : 720 пикселей
Высота : 302 пикселя
Соотношение сторон : 2,40:1
Режим частоты кадров : Постоянный
Частота кадров : 24,000 кадра/сек
Цветовое пространство : YUV
Субдискретизация насыщенности : 4:2:0
Битовая глубина : 8 бит
Тип развёртки : Прогрессивная
Бит/(Пиксели*Кадры) : 0.364
Размер потока : 1,16 Гбайт (83%)
Библиотека кодирования : x264 core 146 r2538 121396c
Настройки программы : cabac=1 / ref=10 / deblock=1:-3:-3 / analyse=0x3:0x113 / me=umh / subme=11 / psy=1 / psy_rd=0.99:0.04 / mixed_ref=1 / me_range=48 / chroma_me=1 / trellis=2 / 8x8dct=1 / cqm=0 / deadzone=21,11 / fast_pskip=1 / chroma_qp_offset=-3 / threads=6 / lookahead_threads=1 / sliced_threads=0 / nr=0 / decimate=1 / interlaced=0 / bluray_compat=0 / constrained_intra=0 / bframes=10 / b_pyramid=2 / b_adapt=2 / b_bias=0 / direct=3 / weightb=1 / open_gop=0 / weightp=2 / keyint=240 / keyint_min=24 / scenecut=40 / intra_refresh=0 / rc_lookahead=40 / rc=2pass / mbtree=1 / bitrate=1897 / ratetol=1.0 / qcomp=0.60 / qpmin=0 / qpmax=69 / qpstep=4 / cplxblur=20.0 / qblur=0.5 / vbv_maxrate=50000 / vbv_bufsize=62500 / nal_hrd=none / filler=0 / ip_ratio=1.40 / aq=1:1.00
Default : Да
Forced : Нет

Аудио
Идентификатор : 2
Формат : AC-3
Формат/Информация : Audio Coding 3
Расширение режима : CM (complete main)
Параметр Endianness формата : Big
Идентификатор кодека : A_AC3
Продолжительность : 1 ч. 28 м.
Вид битрейта : Постоянный
Битрейт : 384 Кбит/сек
Каналы : 6 каналов
Расположение каналов : Front: L C R, Side: L R, LFE
Частота : 48,0 КГц
Частота кадров : 31,250 кадров/сек (1536 spf)
Битовая глубина : 16 бит
Метод сжатия : С потерями
Размер потока : 244 Мбайт (17%)
Заголовок : iTunes
Язык : Russian
Default : Да
Forced : Нет

Меню
00:00:00.000 : en:00:00:00.000
00:09:07.667 : en:00:09:07.667
00:14:10.208 : en:00:14:10.208
00:20:50.167 : en:00:20:50.167
00:32:08.667 : en:00:32:08.667
00:40:43.417 : en:00:40:43.417
00:50:47.875 : en:00:50:47.875
01:03:44.750 : en:01:03:44.750
01:11:55.750 : en:01:11:55.750
01:23:48.083 : en:01:23:48.083

pb.wtf



Скачать Дыши во мгле через торрент http://i102.fastpic.ru/big/2018/0806/65/c2b4be00b3c810f2f08b11f38c031d65.jpg Скачать фильм Дыши во мгле через торрент бесплантно в хорошем качестве Описание: После внезапного землетрясения туман, убивающий все живое, окутывает Париж. Немногие из оставшихся в живых забираются за чистым ... 9.9 10 12
Торрент: Зарегистрирован [2018-08-06 05:22] · скачан: 338 раз
Статус: √ проверено
Размер: 1.4 GB
Как cкачать? Как скачать Дыши во мгле через торрент | qTorrent

% Раздел Тема Автор DL S | L
Фильмы (Blu-ray, BD-Remux, HDDVD) [ 16.87 GB ] Дыши во мгле / Dans la brume [2018 BD Remux 1080p] bober100 Скачать
1 | 0
Фильмы 2018 [DVDrip, WEB-DLRip, HDrip] (DUB, MVO) [ 1.72 GB ] Дыши во мгле / Dans la brume [2018 BDRip-AVC] - ExKinoRay Enigma2010 Скачать
6 | 0
Фильмы [HD 720p, 1080p] (Хороший звук DUB, MVO) [ 7.62 GB ] Дыши во мгле / Dans la brume [2018 BDRip 1080p] killermax2013 Скачать
2 | 0
Фильмы 2018 [DVDrip, WEB-DLRip, HDrip] (DUB, MVO) [ 1.42 GB ] Дыши во мгле / Dans la brume [2018 BDRip] - Twi7ter Скачать
5 | 0
Фильмы 2018 [DVDrip, WEB-DLRip, HDrip] (DUB, MVO) [ 745 MB ] Дыши во мгле / Dans la brume [2018 BDRip] bober100 Скачать
1 | 0
Фильмы [HD 720p, 1080p] (Хороший звук DUB, MVO) [ 3.42 GB ] Дыши во мгле / Dans la brume [2018 BDRip 720p] bober100 Скачать
1 | 0
Фильмы 2018 [DVDrip, WEB-DLRip, HDrip] (DUB, MVO) [ 1.42 GB ] Дыши во мгле / Dans la brume [2018 BDRip] killermax2013 Скачать
3 | 0

28-11-2019 20:33  

Отключить всю рекламу на сайте


    Дорогой пользователь! Огромная просьба, поблагодарите релизера, оцените раздачу и оставьте свои комментарий, если Вы скачали Дыши во мгле через торрент бесплатно! Внесите свою лепту в развитие PiratBit!
    Комментировать посты могут только пользователи прошедшие не сложную регистрацию
    Показать сообщения:    

    Дыши во мгле через торрент
    Скачать бесплатно Дыши во мгле
    Дыши во мгле скачать торрент
    Дыши во мгле смотреть онлайн
    Cкачать фильм Дыши во мгле бесплатно
    Дыши во мгле скачать торрент в хорошем качестве
    Дыши во мгле смотреть онлайн бесплатно в хорошем качестве


    Вы не можете начинать темы
    Вы не можете отвечать на сообщения
    Вы не можете редактировать свои сообщения
    Вы не можете удалять свои сообщения
    Вы не можете голосовать в опросах
    Вы не можете прикреплять файлы к сообщениям
    Вы можете скачивать файлы