Ссылка на приватное зеркало всего за 1$. Внимание количество ограничено!!!

OK

1+1

iTunes

мы

OK

1

WEB-DLRip

Джокер

Пифагор

Ведьмак / The Witcher сериал

Лицензия

ПШазам

ОК

Оно 2

iTunes

30
pack

Вам бонус

ВАЖНО

!!Акция!!

Alien_RageХит недели

RePack

Resident Evil 21

ИГРА 18+

pack

RePack

jed

!!Акция!!

Alien_Rage

RePack

fifa19

RePack

Assassins Creed: Odyssey

RePack

NEED FOR SPEED™ PAYBACK

4 сезон

9 сезон

Бесстыжие 9 сезон

Все сериалы

все сериалы на PB.wtf

RePack

FAR CRY 5
  

Фантомная боль / Phantomschmerz (Маттиас Эмке) [2009, драма, биография, BDRip 720p by msltel] MVO, VO pb.wtf

Фантомная боль через торрент pb.wtf

Размер: 4.09 GB | Добавлен: 1 год 5 мес. назад | Торрент скачан:36 раз
Скачать  

06-08-2018 09:13 Фантомная боль Скачать торрент  

Название: Фантомная боль
Оригинальное название: Phantomschmerz
Год выпуска: 2009
Страна: Германия
Жанр: драма, биография
Продолжительность: 01:37:32
Перевод: Закадровый многоголосый, закадровый одноголосый

Режиссер: Маттиас Эмке
В ролях: Тиль Швайгер, Яна Палласке, Стайп Эрцег, Луна Швайгер, Алвара Хефельс, Карина Визе, Еллине Салво Гонсалез, Годе Бенедикс, Джулия Брендлер, Кида Ходр Рамадан, Ганс-Хайнрих Хардт, Милена Арнольдт, Рихард Заммель, Стефан Бикер, Ральф Диттрих

О фильме: Фантомная боль мучает Марка, потерявшего ногу в автомобильной катастрофе. Ему больнее вдвойне: такого отчаянного велогонщика и любителя женщин ещё нужно поискать. Увлекаясь не на шутку, он начисто терял чувство ответственности, даже по отношению к собственной дочери. И только авария повлияла на его ощущение реальности... Фильм основан на реальных событиях, происшедших в 2004 году с велосипедистом, другом режиссёра, Штефаном Зумнером. Он является одним из дублёров Тиля Швайгера в фильме.



Качество: BDRip 720p
Формат: MKV
Видео: MPEG-4 AVC, 4654 Кбит/с, 1280x544, 23.976 кадр/с
Аудио 1: русский, AC3, 448 kbps, 6 ch, 48 kHz [закадровый многоголосый]
Аудио 2: русский, AC3, 448 kbps, 6 ch, 48 kHz [закадровый одноголосый, DeMon]
Аудио 3: английский, AC3, 448 kbps, 6 ch, 48 kHz [оригинал]
Субтитры 1: русские
Субтитры 2: английские
Субтитры 3: немецкие
Главы/чаптеры
Общее
Уникальный идентификатор : 187337827433592454945552145908804886158 (0x8CEFF4021A38663C8E3BA0FC86641E8E)
Полное имя : D:\Video\Фантомная боль.2009.BDRip.720p by msltel.mkv
Формат : Matroska
Версия формата : Version 4 / Version 2
Размер файла : 4,09 Гбайт
Продолжительность : 1 ч. 37 м.
Общий поток : 6000 Кбит/сек
Название фильма : Rip by msltel
Дата кодирования : UTC 2018-08-06 10:28:15
Программа кодирования : mkvmerge v8.2.0 ('World of Adventure') 64bit
Библиотека кодирования : libebml v1.3.1 + libmatroska v1.4.2

Видео
Идентификатор : 1
Формат : AVC
Формат/Информация : Advanced Video Codec
Профиль формата : High@L4.1
Настройки формата : CABAC / 9 Ref Frames
Параметр CABAC формата : Да
Параметр RefFrames формата : 9 кадров
Идентификатор кодека : V_MPEG4/ISO/AVC
Продолжительность : 1 ч. 37 м.
Битрейт : 4654 Кбит/сек
Ширина : 1280 пикселей
Высота : 544 пикселя
Соотношение сторон : 2,35:1
Режим частоты кадров : Постоянный
Частота кадров : 23,976 (24000/1001) кадра/сек
Цветовое пространство : YUV
Субдискретизация насыщенности : 4:2:0
Битовая глубина : 8 бит
Тип развёртки : Прогрессивная
Бит/(Пиксели*Кадры) : 0.279
Размер потока : 3,17 Гбайт (78%)
Библиотека кодирования : x264 core 155 r2901 7d0ff22
Настройки программы : cabac=1 / ref=9 / deblock=1:-3:-2 / analyse=0x3:0x113 / me=umh / subme=11 / psy=1 / psy_rd=1.00:0.15 / mixed_ref=1 / me_range=32 / chroma_me=1 / trellis=2 / 8x8dct=1 / cqm=0 / deadzone=21,11 / fast_pskip=0 / chroma_qp_offset=-3 / threads=6 / lookahead_threads=1 / sliced_threads=0 / nr=0 / decimate=1 / interlaced=0 / bluray_compat=0 / constrained_intra=0 / bframes=7 / b_pyramid=2 / b_adapt=2 / b_bias=0 / direct=1 / weightb=1 / open_gop=0 / weightp=2 / keyint=230 / keyint_min=23 / scenecut=40 / intra_refresh=0 / rc_lookahead=40 / rc=crf / mbtree=1 / crf=18.5 / qcomp=0.60 / qpmin=0 / qpmax=69 / qpstep=4 / vbv_maxrate=62500 / vbv_bufsize=78125 / crf_max=0.0 / nal_hrd=none / filler=0 / ip_ratio=1.40 / aq=1:1.00
Язык : German
Default : Да
Forced : Нет

Аудио #1
Идентификатор : 2
Формат : AC-3
Формат/Информация : Audio Coding 3
Идентификатор кодека : A_AC3
Продолжительность : 1 ч. 37 м.
Вид битрейта : Постоянный
Битрейт : 448 Кбит/сек
Каналы : 6 каналов
Расположение каналов : Front: L C R, Side: L R, LFE
Частота : 48,0 КГц
Частота кадров : 31,250 кадров/сек (1536 SPF)
Битовая глубина : 16 бит
Метод сжатия : С потерями
Размер потока : 313 Мбайт (7%)
Заголовок : MVO
Язык : Russian
ServiceKind/String : Complete Main
Default : Да
Forced : Нет

Аудио #2
Идентификатор : 3
Формат : AC-3
Формат/Информация : Audio Coding 3
Идентификатор кодека : A_AC3
Продолжительность : 1 ч. 37 м.
Вид битрейта : Постоянный
Битрейт : 448 Кбит/сек
Каналы : 6 каналов
Расположение каналов : Front: L C R, Side: L R, LFE
Частота : 48,0 КГц
Частота кадров : 31,250 кадров/сек (1536 SPF)
Битовая глубина : 16 бит
Метод сжатия : С потерями
Размер потока : 313 Мбайт (7%)
Заголовок : Demon
Язык : Russian
ServiceKind/String : Complete Main
Default : Нет
Forced : Нет

Аудио #3
Идентификатор : 4
Формат : AC-3
Формат/Информация : Audio Coding 3
Идентификатор кодека : A_AC3
Продолжительность : 1 ч. 37 м.
Вид битрейта : Постоянный
Битрейт : 448 Кбит/сек
Каналы : 6 каналов
Расположение каналов : Front: L C R, Side: L R, LFE
Частота : 48,0 КГц
Частота кадров : 31,250 кадров/сек (1536 SPF)
Битовая глубина : 16 бит
Метод сжатия : С потерями
Размер потока : 313 Мбайт (7%)
Заголовок : original
Язык : German
ServiceKind/String : Complete Main
Default : Нет
Forced : Нет

Текст #1
Идентификатор : 5
Формат : UTF-8
Идентификатор кодека : S_TEXT/UTF8
Идентификатор кодека/Информация : UTF-8 Plain Text
Продолжительность : 1 ч. 30 м.
Битрейт : 54 бит/сек
ElementCount : 589
Размер потока : 36,5 Кбайт (0%)
Заголовок : русские
Язык : Russian
Default : Нет
Forced : Нет

Текст #2
Идентификатор : 6
Формат : UTF-8
Идентификатор кодека : S_TEXT/UTF8
Идентификатор кодека/Информация : UTF-8 Plain Text
Продолжительность : 1 ч. 30 м.
Битрейт : 31 бит/сек
ElementCount : 589
Размер потока : 21,2 Кбайт (0%)
Заголовок : английские
Язык : English
Default : Нет
Forced : Нет

Текст #3
Идентификатор : 7
Формат : UTF-8
Идентификатор кодека : S_TEXT/UTF8
Идентификатор кодека/Информация : UTF-8 Plain Text
Продолжительность : 1 ч. 29 м.
Битрейт : 43 бит/сек
ElementCount : 752
Размер потока : 28,8 Кбайт (0%)
Заголовок : немецкие
Язык : German
Default : Нет
Forced : Нет

Меню
00:00:00.000 : :Chapter 1
00:05:55.229 : :Chapter 2
00:13:38.943 : :Chapter 3
00:22:57.041 : :Chapter 4
00:31:46.571 : :Chapter 5
00:42:07.650 : :Chapter 6
00:50:00.706 : :Chapter 7
00:57:26.776 : :Chapter 8
01:05:30.801 : :Chapter 9
01:16:37.968 : :Chapter 10
01:22:18.600 : :Chapter 11
01:32:11.943 : :Chapter 12
01:37:30.678 : :Chapter 13
pb.wtf



Скачать Фантомная боль через торрент https://d.radikal.ru/d15/1808/f2/df4c3d28cadd.jpg Скачать фильм Фантомная боль через торрент бесплантно в хорошем качестве О фильме: Фантомная боль мучает Марка, потерявшего ногу в автомобильной катастрофе. Ему больнее вдвойне: такого отчаянного велогонщика и ... 10 10 2
Info! Золотая раздача, скачанное не засчитывается.
Торрент: Зарегистрирован [2018-08-06 09:13] · скачан: 36 раз
Статус: √ проверено
Размер: 4.09 GB
Как cкачать? Как скачать Фантомная боль через торрент | qTorrent

% Раздел Тема Автор DL S | L
Фильмы [HD 720p, 1080p] (Хороший звук DUB, MVO) [ 10.45 GB ] Фантомная боль / Phantomschmerz [2009 биография BDRip 1080p by msltel] MVO VO msltel Скачать
1 | 0
Фильмы 2009 [ 1.45 GB ] Фантомная боль / Phantomschmerz [2009 биография HDRip MVO] lev1244v Скачать
1 | 0

28-11-2019 20:33  

Отключить всю рекламу на сайте

    Дорогой пользователь! Огромная просьба, поблагодарите релизера, оцените раздачу и оставьте свои комментарий, если Вы скачали Фантомная боль через торрент бесплатно! Внесите свою лепту в развитие PiratBit!
    Комментировать посты могут только пользователи прошедшие не сложную регистрацию
    Показать сообщения:    

    Фантомная боль через торрент
    Скачать бесплатно Фантомная боль
    Фантомная боль скачать торрент
    Фантомная боль смотреть онлайн
    Cкачать фильм Фантомная боль бесплатно
    Фантомная боль скачать торрент в хорошем качестве
    Фантомная боль смотреть онлайн бесплатно в хорошем качестве


    Вы не можете начинать темы
    Вы не можете отвечать на сообщения
    Вы не можете редактировать свои сообщения
    Вы не можете удалять свои сообщения
    Вы не можете голосовать в опросах
    Вы не можете прикреплять файлы к сообщениям
    Вы можете скачивать файлы