Ссылка на приватное зеркало нашего сайта всего за 1$. Внимание количество ограничено!!!

2 сезон

iTunes

1 сезон

1

2 сезон

2 сезон

iTunes

1 сезон

RePack

30

Новинка

ВАЖНО

ИГРА 18+

pack

RePack

MK11
pack

Забери бонус

RePack

jed

!!Акция!!

Alien_Rage

RePack

fifa19

RePack

Assassins Creed: Odyssey

RePack

NEED FOR SPEED™ PAYBACK

4 сезон

9 сезон

Бесстыжие 9 сезон

Все сериалы

все сериалы на PB.wtf

RePack

FAR CRY 5
  

И никого не стало / And Then There Were None / Сезон: 1 / Серии: 1-3 из 3 (Крэйг Вивейрос) [2015, триллер, драма, криминал, детектив, HDTV 1080p] MVO [NewStudio] pb.wtf

И никого не стало через торрент pb.wtf

Размер: 8.34 GB | Добавлен: 2 года 3 мес. назад | Торрент скачан:95 раз
Скачать  

06-08-2018 09:16 И никого не стало Скачать торрент  

И никого не сталоAnd Then There Were NoneГод выпуска: 2015
Страна: Великобритания
Жанр: триллер, драма, криминал, детектив
Продолжительность: 00:56:00
Перевод: Профессиональный (многоголосый, закадровый) |
Субтитры: нет

Режиссер: Крэйг Вивейрос / Craig Viveiros

В ролях:
Катрин Бэйли (Olivia Hamilton), Дуглас Бут (Anthony Marston), Чарльз Дэнс (Justice Lawrence Wargrave), Мейв Дермоди (Vera Claythorne), Берн Горман (William Blore), Кристофер Хатрэлл (Fred Narracott), Анна Максвелл Мартин (Ethel Rogers), Сэм Нил (General John MacArthur), Миранда Ричардсон (Miss Emily Brent), Тоби Стивенс (Dr. Edward Armstrong), Ноа Тейлор (Thomas Rogers), Эйдан Тернер (Philip Lombard)

Описание:

Восемь незнакомых друг с другом человек оказываются приглашенными супругами Оуэн в великолепный замок, расположенный на острове. Собравшись за большим обеденным столом, гости с удивлением узнают, что хозяев нет в доме, а единственные живущие здесь — семейная пара слуг. Именно они ставят собравшимся граммофонную запись, которая обвиняет всех в убийствах. Неизвестный голос обещает всем соответствующее их преступлению наказание. Гости, которые не могут уехать с острова, оказались в ловушке. Кто-то начинает убивать по очереди всех, кто собрался в замке. «И не осталось никого» — экранизация детективного романа Агаты Кристи «Десять негритят».

rating

Качество: HDTV 1080p
Контейнер: MKV

Видео: H.264, 1920x1080 [2:1], 25.000 fps, 6 192 kbps, 0.119 bit/pixel
Аудио №1: AC3, 48 kHz, 2 ch, 192 kbps [NewStudio]
Аудио №2: AC3, 48 kHz, 2 ch, 384 kbps [Original]
скриншот  скриншот  скриншот  скриншот  
General
Unique ID : 213565938685058136176903977053871664611 (0xA0AB4DBB7290BD24B108117868DFEDE3)
Complete name : H:\And.Then.There.Were.None.S01.HDTV.1080p.NewStudio\And.Then.There.Were.None.01.HDTV.1080p.NewStudio.TV.mkv
Format : Matroska
Format version : Version 4 / Version 2
File size : 2.70 GiB
Duration : 55mn 58s
Overall bit rate : 6 905 Kbps
Encoded date : UTC 2015-12-28 15:29:30
Writing application : mkvmerge v8.2.0 ('World of Adventure') 64bit
Writing library : libebml v1.3.1 + libmatroska v1.4.2
DURATION : 00:55:58.432000000
NUMBER_OF_FRAMES : 104951
NUMBER_OF_BYTES : 80602368
_STATISTICS_WRITING_APP : mkvmerge v8.2.0 ('World of Adventure') 64bit
_STATISTICS_WRITING_DATE_UT : 2015-12-28 15:29:30
_STATISTICS_TAGS : BPS DURATION NUMBER_OF_FRAMES NUMBER_OF_BYTES

Video
ID : 1
Format : AVC
Format/Info : Advanced Video Codec
Format profile : High@L4.1
Format settings, CABAC : Yes
Format settings, ReFrames : 4 frames
Codec ID : V_MPEG4/ISO/AVC
Duration : 55mn 58s
Bit rate : 6 192 Kbps
Width : 1 920 pixels
Height : 1 080 pixels
Display aspect ratio : 16:9
Frame rate mode : Constant
Frame rate : 25.000 fps
Color space : YUV
Chroma subsampling : 4:2:0
Bit depth : 8 bits
Scan type : Progressive
Bits/(Pixel*Frame) : 0.119
Stream size : 2.42 GiB (90%)
Writing library : x264 core 148 r2638 7599210
Encoding settings : cabac=1 / ref=4 / deblock=1:0:0 / analyse=0x3:0x113 / me=umh / subme=8 / psy=1 / psy_rd=1.00:0.00 / mixed_ref=1 / me_range=16 / chroma_me=1 / trellis=1 / 8x8dct=1 / cqm=0 / deadzone=21,11 / fast_pskip=1 / chroma_qp_offset=-2 / threads=6 / lookahead_threads=1 / sliced_threads=0 / nr=0 / decimate=1 / interlaced=0 / bluray_compat=0 / constrained_intra=0 / bframes=3 / b_pyramid=2 / b_adapt=2 / b_bias=0 / direct=3 / weightb=1 / open_gop=0 / weightp=2 / keyint=250 / keyint_min=25 / scenecut=40 / intra_refresh=0 / rc_lookahead=50 / rc=crf / mbtree=1 / crf=18.0 / qcomp=0.60 / qpmin=0 / qpmax=69 / qpstep=4 / ip_ratio=1.40 / aq=1:1.00
Language : English
Default : Yes
Forced : No
DURATION : 00:55:58.440000000
NUMBER_OF_FRAMES : 83961
NUMBER_OF_BYTES : 2656016200
_STATISTICS_WRITING_APP : mkvmerge v8.2.0 ('World of Adventure') 64bit
_STATISTICS_WRITING_DATE_UT : 2015-12-28 15:29:30
_STATISTICS_TAGS : BPS DURATION NUMBER_OF_FRAMES NUMBER_OF_BYTES

Audio #1
ID : 2
Format : AC-3
Format/Info : Audio Coding 3
Mode extension : CM (complete main)
Format settings, Endianness : Big
Codec ID : A_AC3
Duration : 55mn 58s
Bit rate mode : Constant
Bit rate : 192 Kbps
Channel(s) : 2 channels
Channel positions : Front: L R
Sampling rate : 48.0 KHz
Compression mode : Lossy
Stream size : 76.9 MiB (3%)
Language : Russian
Default : Yes
Forced : Yes

Audio #2
ID : 3
Format : AC-3
Format/Info : Audio Coding 3
Mode extension : CM (complete main)
Format settings, Endianness : Big
Codec ID : A_AC3
Duration : 55mn 58s
Bit rate mode : Constant
Bit rate : 384 Kbps
Channel(s) : 2 channels
Channel positions : Front: L R
Sampling rate : 48.0 KHz
Compression mode : Lossy
Delay relative to video : 14ms
Stream size : 154 MiB (6%)
Default : No
Forced : No
[font-cursive1]Внимание! Раздача ведётся путём добавления новых серий; при каждом добавлении создаётся новый торрент. Чтобы начать докачку новой серии, пользователям необходимо сделать следующее: (1) остановить скачивание, (2) удалить старый торрент у себя из клиента (старые серии удалять не надо), (3) скачать новый торрент и запустить его у себя в клиенте вместо старого, при этом указать клиенту путь в старую папку куда и должно происходить скачивание новых серий.
Ваш клиент при этом должен произвести хеширование (проверку) старой папки (если не производит сам - помогите ему сделать это), и будет докачивать только те серии которых у вас ещё нет. Старые серии при этом не удаляются, а продолжают раздаваться!
Eсли вы уже удалили старые серии, то предотвратить повторную закачку старых серий можно, отжав галочку в соответствующих местах при запуске нового торрента.
[/font-cursive1]
pb.wtf



Скачать И никого не стало через торрент http://i73.fastpic.ru/big/2015/1227/e6/66d47b50b6b241c377b722d3bea424e6.png Скачать фильм И никого не стало через торрент бесплантно в хорошем качестве Описание: Восемь незнакомых друг с другом человек оказываются приглашенными супругами Оуэн в великолепный замок, расположенный на острове. ... 10 10 4
Торрент: Зарегистрирован [2018-08-06 09:16] · скачан: 95 раз
Статус: √ проверено
Размер: 8.34 GB
Как cкачать? Как скачать И никого не стало через торрент | qTorrent

% Раздел Тема Автор DL S | L
Зарубежные сериалы [ 3.43 GB ] И никого не стало / And Then There Were None / Сезон: 1 / Серии 1-3 из 3 [2015 HDTVRip-AVC] MVO [NewStudio] GEKADOL Скачать
1 | 0

28-11-2019 20:33  

Отключить всю рекламу на сайте

    Дорогой пользователь! Огромная просьба, поблагодарите релизера, оцените раздачу и оставьте свои комментарий, если Вы скачали И никого не стало через торрент бесплатно! Внесите свою лепту в развитие PiratBit!
    Комментировать посты могут только пользователи прошедшие не сложную регистрацию
    Показать сообщения:    

    И никого не стало через торрент
    Скачать бесплатно И никого не стало
    И никого не стало скачать торрент
    И никого не стало смотреть онлайн
    Cкачать фильм И никого не стало бесплатно
    И никого не стало скачать торрент в хорошем качестве
    И никого не стало смотреть онлайн бесплатно в хорошем качестве


    Вы не можете начинать темы
    Вы не можете отвечать на сообщения
    Вы не можете редактировать свои сообщения
    Вы не можете удалять свои сообщения
    Вы не можете голосовать в опросах
    Вы не можете прикреплять файлы к сообщениям
    Вы можете скачивать файлы