Ссылка на приватное зеркало нашего сайта всего за 1$. Внимание количество ограничено!!!

2 сезон

iTunes

1 сезон

1

2 сезон

2 сезон

iTunes

1 сезон

RePack

30

Новинка

ВАЖНО

ИГРА 18+

pack

RePack

MK11
pack

Забери бонус

RePack

jed

!!Акция!!

Alien_Rage

RePack

fifa19

RePack

Assassins Creed: Odyssey

RePack

NEED FOR SPEED™ PAYBACK

4 сезон

9 сезон

Бесстыжие 9 сезон

Все сериалы

все сериалы на PB.wtf

RePack

FAR CRY 5
  

Истории призраков / Ghost Stories (Джереми Дайсон, Энди Найман) [2017, ужасы, драма, WEB-DL 720p] [Локализованная версия] [DUB] [iTunes] pb.wtf

Истории призраков через торрент pb.wtf

Размер: 3.3 GB | Добавлен: 2 года 3 мес. назад | Торрент скачан:461 раз
Скачать  

06-08-2018 16:21 Истории призраков Скачать торрент  

Истории призраков / Ghost Stories Год выпуска: 2017
Страна: Великобритания
Жанр: ужасы, драма
Продолжительность: 01:37:30
Перевод: Дубляж [iTunes]
Субтитры: Русские, английские

Режиссер: Джереми Дайсон, Энди Найман

В ролях: Энди Найман, Мартин Фриман, Пол Уайтхаус, Алекс Лоутер, Пол Уоррен, Кобна Холдбрук-Смит, Николас Барнс, Луиз Аткинс, Лесли Харкорт, Эми Дойл

Описание: Профессор психологии Гудман изучает историю трех человек, которые якобы столкнулись со сверхъестественным: ночного сторожа, подростка и бизнесмена. Скептически настроенный профессор превращается из наблюдателя в активного участника, когда получает послание с того света.



Качество: WEB-DL 720p
Формат: MKV
Видео: MPEG-4 AVC, 4075 Kбит/с, 1280x572
Аудио 1: AC3, 6 ch, 384 Кбит/с - Rus
Аудио 2: AC3, 6 ch, 384 Кбит/с - Eng
General
Unique ID : 213819512023253788820623969260832510598 (0xA0DC23DCEFF088EB8EB65F61047F5286)
Complete name : D:\Video111\Ghost.Stories.2018.D.WEB-DL.720p.ExKinoRay.mkv
Format : Matroska
Format version : Version 4 / Version 2
File size : 3.30 GiB
Duration : 1 h 37 min
Overall bit rate : 4 844 kb/s
Movie name : Ghost Stories 2018 from ExKinoRay
Encoded date : UTC 2018-08-06 15:31:39
Writing application : mkvmerge v7.3.0 ('Nouages') 64bit built on Oct 22 2014 18:53:34
Writing library : libebml v1.3.0 + libmatroska v1.4.1

Video
ID : 1
Format : AVC
Format/Info : Advanced Video Codec
Format profile : High@L3.1
Format settings : 2 Ref Frames
Format settings, CABAC : No
Format settings, ReFrames : 2 frames
Codec ID : V_MPEG4/ISO/AVC
Duration : 1 h 37 min
Bit rate : 4 075 kb/s
Width : 1 280 pixels
Height : 572 pixels
Display aspect ratio : 2.25:1
Frame rate mode : Constant
Frame rate : 24.000 FPS
Color space : YUV
Chroma subsampling : 4:2:0
Bit depth : 8 bits
Scan type : Progressive
Bits/(Pixel*Frame) : 0.232
Stream size : 2.78 GiB (84%)
Language : English
Default : Yes
Forced : No
Color range : Limited
Color primaries : BT.709
Transfer characteristics : BT.709
Matrix coefficients : BT.709

Audio #1
ID : 2
Format : AC-3
Format/Info : Audio Coding 3
Commercial name : Dolby Digital
Codec ID : A_AC3
Duration : 1 h 37 min
Bit rate mode : Constant
Bit rate : 384 kb/s
Channel(s) : 6 channels
Channel positions : Front: L C R, Side: L R, LFE
Sampling rate : 48.0 kHz
Frame rate : 31.250 FPS (1536 SPF)
Bit depth : 16 bits
Compression mode : Lossy
Stream size : 268 MiB (8%)
Title : iTunes
Language : Russian
Service kind : Complete Main
Default : Yes
Forced : Yes

Audio #2
ID : 3
Format : AC-3
Format/Info : Audio Coding 3
Commercial name : Dolby Digital
Codec ID : A_AC3
Duration : 1 h 37 min
Bit rate mode : Constant
Bit rate : 384 kb/s
Channel(s) : 6 channels
Channel positions : Front: L C R, Side: L R, LFE
Sampling rate : 48.0 kHz
Frame rate : 31.250 FPS (1536 SPF)
Bit depth : 16 bits
Compression mode : Lossy
Stream size : 268 MiB (8%)
Title : Original
Language : English
Service kind : Complete Main
Default : No
Forced : No

Text #1
ID : 4
Format : UTF-8
Codec ID : S_TEXT/UTF8
Codec ID/Info : UTF-8 Plain Text
Duration : 1 h 30 min
Bit rate : 69 b/s
Count of elements : 979
Stream size : 46.5 KiB (0%)
Title : Full
Language : Russian
Default : No
Forced : No

Text #2
ID : 5
Format : UTF-8
Codec ID : S_TEXT/UTF8
Codec ID/Info : UTF-8 Plain Text
Duration : 1 h 30 min
Bit rate : 42 b/s
Count of elements : 1003
Stream size : 28.2 KiB (0%)
Title : SDH
Language : English
Default : No
Forced : No

Menu
00:00:00.000 : en:Глава 1
00:07:20.166 : en:Глава 2
00:14:53.499 : en:Глава 3
00:22:06.457 : en:Глава 4
00:29:32.040 : en:Глава 5
00:36:23.164 : en:Глава 6
00:44:29.622 : en:Глава 7
00:52:08.080 : en:Глава 8
00:59:16.621 : en:Глава 9
01:05:44.579 : en:Глава 10
01:14:13.828 : en:Глава 11
01:21:36.910 : en:Глава 12
01:28:54.660 : en:Глава 13
скриншот  скриншот  скриншот  
pb.wtf



Скачать Истории призраков через торрент http://img12.lostpic.net/2018/06/05/e8ffef5de24d2f50e9be036288cd0cbd.jpg Скачать фильм Истории призраков через торрент бесплантно в хорошем качестве Описание: Профессор психологии Гудман изучает историю трех человек, которые якобы столкнулись со сверхъестественным: ночного сторожа, ... 8.9 10 12
Торрент: Зарегистрирован [2018-08-06 16:21] · скачан: 461 раз
Статус: √ проверено
Размер: 3.3 GB
Как cкачать? Как скачать Истории призраков через торрент | qTorrent

% Раздел Тема Автор DL S | L
Фильмы 2017 [DVDrip, WEB-DLRip, HDrip] (DUB, MVO) [ 1.42 GB ] Истории призраков / Ghost Stories [2017 BDRip] - Twi7ter Скачать
1 | 0
Фильмы 2017 [DVDrip, WEB-DLRip, HDrip] (DUB, MVO) [ 1.46 GB ] Истории призраков / Ghost Stories [2017 WEB-DLRip-AVC] bober100 Скачать
3 | 0
T Фильмы (мультфильмы) cо спонсором показа (Новинки AVI/MKV) [ 2.84 GB ] Баньши: история ирландских призраков / Banshee Blacktop an Irish Ghost Story [2016 WEB-DL 720p] MVO [КОЛОБОК] bober100 Скачать
1 | 0
T Фильмы (мультфильмы) cо спонсором показа (Новинки AVI/MKV) [ 1.36 GB ] Баньши: история ирландских призраков / Banshee Blacktop an Irish Ghost Story [2016 WEB-DLRip] MVO [КОЛОБОК] bober100 Скачать
1 | 0
Фильмы [HD 720p, 1080p] (Хороший звук DUB, MVO) [ 8.86 GB ] Истории призраков / Ghost Stories [2017 BDRip 1080p] bober100 Скачать
1 | 0
Фильмы 2017 [DVDrip, WEB-DLRip, HDrip] (DUB, MVO) [ 1.42 GB ] Истории призраков / Ghost Stories [2017 BDRip] bober100 Скачать
1 | 0
Фильмы (Blu-ray, BD-Remux, HDDVD) [ 22.04 GB ] Истории призраков / Ghost Stories [2017 BD Remux 1080p] bober100 Скачать
1 | 0

28-11-2019 20:33  

Отключить всю рекламу на сайте

12-08-2018 18:44 Истории призраков Скачать торрент  

шикарный фильмpb.wtf



18-08-2018 11:23 Истории призраков Скачать торрент  

Отличный фильм! Концовка мутноватая, без прямых ответов на вопросы. Но в этом своя фишка.pb.wtf



    Дорогой пользователь! Огромная просьба, поблагодарите релизера, оцените раздачу и оставьте свои комментарий, если Вы скачали Истории призраков через торрент бесплатно! Внесите свою лепту в развитие PiratBit!
    Комментировать посты могут только пользователи прошедшие не сложную регистрацию
    Показать сообщения:    

    Истории призраков через торрент
    Скачать бесплатно Истории призраков
    Истории призраков скачать торрент
    Истории призраков смотреть онлайн
    Cкачать фильм Истории призраков бесплатно
    Истории призраков скачать торрент в хорошем качестве
    Истории призраков смотреть онлайн бесплатно в хорошем качестве


    Вы не можете начинать темы
    Вы не можете отвечать на сообщения
    Вы не можете редактировать свои сообщения
    Вы не можете удалять свои сообщения
    Вы не можете голосовать в опросах
    Вы не можете прикреплять файлы к сообщениям
    Вы можете скачивать файлы