2 сезон

iTunes

MVO

1

2 сезон

iTunes

iTunes

1 сезон

RePack

30

Ultimate

ВАЖНО

ИГРА 18+

pack

RePack

MK11
pack

Легкие деньги

RePack

jed

RePack

fifa19

RePack

RDR2

RePack

NEED FOR SPEED™ PAYBACK

4 сезон

9 сезон

Бесстыжие 9 сезон

Все сериалы

все сериалы на PB.wtf

RePack

FAR CRY 5

Anonymous, доброй ночи, мы не успеваем собрать деньги на оплату серверов за декабрь и январь, помогите нам пожалуйста в это трудное время. В качестве благодарности мы отключим Вам всю рекламу на сайте (укажите свой ник в строку Ваше имя)!

×
  
Magnet ссылка

Счастливчик / Lucky (Джон Кэрролл Линч) [2017, драма, комедия, BDRip-AVC] [MVO] (Jaskier, HDrezka Studio) - ExKinoRay pb.wtf

Счастливчик через торрент pb.wtf

Раздают: 1 [ 0 KB/s ]
Размер: 1.73 GB | Добавлен: 2 года 5 мес. назад | Торрент скачан:141 раз
Скачать  

07-08-2018 04:30 Счастливчик Скачать торрент  

Название: Счастливчик
Оригинальное название: Lucky
Год выпуска: 2017
Жанр: Драма, комедия
Режиссер: Джон Кэрролл Линч
В ролях: Гарри Дин Стэнтон, Дэвид Линч, Рон Ливингстон, Эд Бегли мл., Том Скерритт, Бет Грант, Джеймс Даррен, Бэрри Шебака Хенли, Ивонн Хафф, Хьюго Армстронг

Описание: История духовных поисков 90-летнего атеиста-одиночки Лаки. Заядлый курильщик, он поражает врачей своим здоровьем и ясным умом, но сам невольно задается вопросом – как долго ему не изменит удача? А главное, что будет потом?

rating

Выпущено: США, Divide / Conquer
Продолжительность: 01:28:19
Перевод: Профессиональный многоголосый (Jaskier), Профессиональный многоголосый (HDrezka Studio)
Субтитры: Русские, английские

Формат: MKV
Качество: BDRip-AVC
Видео: MPEG-4 AVC, 1024x426 (2.40:1), 24.000 fps, ~1584 kbps avg, 0.151 bit/pixel
Аудио: Русский (48 kHz, AC3 Dolby Digital, 5/1 ch, ~384 kbps),
Аудио: Pусский (48 kHz, AC3 Dolby Digital, 2/0 ch, ~384 kbps)
Аудио: Aнглийский(48 kHz, AC3 Dolby Digital, 5/1 ch, ~448 kbps)

Без какой-либо рекламы.
General
Unique ID : 238935978700714207542403025925083020333 (0xB3C1654729D5F3A7978AA9E8DEF0BC2D)
Complete name : D:\Lucky.2017.2xRus.BDRip.AVC.ExKinoRay.mkv
Format : Matroska
Format version : Version 2
File size : 1.73 GiB
Duration : 1 h 28 min
Overall bit rate : 2 799 kb/s
Movie name : Lucky 2017 from ExKinoRay
Encoded date : UTC 2018-08-07 01:46:18
Writing application : mkvmerge v5.6.0 ('Kenya Kane') built on May 27 2012 16:44:04
Writing library : libebml v1.2.3 + libmatroska v1.3.0

Video
ID : 1
Format : AVC
Format/Info : Advanced Video Codec
Format profile : High@L4.1
Format settings, CABAC : Yes
Format settings, ReFrames : 13 frames
Codec ID : V_MPEG4/ISO/AVC
Duration : 1 h 28 min
Bit rate : 1 584 kb/s
Width : 1 024 pixels
Height : 426 pixels
Display aspect ratio : 2.40:1
Frame rate mode : Constant
Frame rate : 24.000 FPS
Color space : YUV
Chroma subsampling : 4:2:0
Bit depth : 8 bits
Scan type : Progressive
Bits/(Pixel*Frame) : 0.151
Stream size : 965 MiB (55%)
Title : Enigma
Writing library : x264 core 152 r2851 ba24899
Encoding settings : cabac=1 / ref=13 / deblock=1:-2:-2 / analyse=0x3:0x113 / me=umh / subme=10 / psy=1 / psy_rd=1.05:0.10 / mixed_ref=1 / me_range=32 / chroma_me=1 / trellis=2 / 8x8dct=1 / cqm=0 / deadzone=21,11 / fast_pskip=0 / chroma_qp_offset=-3 / threads=12 / lookahead_threads=3 / sliced_threads=0 / nr=0 / decimate=0 / interlaced=0 / bluray_compat=0 / constrained_intra=0 / bframes=12 / b_pyramid=2 / b_adapt=2 / b_bias=0 / direct=3 / weightb=1 / open_gop=0 / weightp=2 / keyint=240 / keyint_min=24 / scenecut=40 / intra_refresh=0 / rc_lookahead=40 / rc=2pass / mbtree=0 / bitrate=1584 / ratetol=1.0 / qcomp=0.65 / qpmin=0 / qpmax=51 / qpstep=4 / cplxblur=20.0 / qblur=0.5 / vbv_maxrate=50000 / vbv_bufsize=62500 / nal_hrd=none / filler=0 / ip_ratio=1.40 / pb_ratio=1.30 / aq=3:0.90
Language : English
Default : Yes
Forced : No
Color range : Limited
Color primaries : BT.709
Transfer characteristics : BT.709
Matrix coefficients : BT.709

Audio #1
ID : 2
Format : AC-3
Format/Info : Audio Coding 3
Mode extension : CM (complete main)
Format settings, Endianness : Big
Codec ID : A_AC3
Duration : 1 h 28 min
Bit rate mode : Constant
Bit rate : 384 kb/s
Channel(s) : 6 channels
Channel positions : Front: L C R, Side: L R, LFE
Sampling rate : 48.0 kHz
Frame rate : 31.250 FPS (1536 spf)
Compression mode : Lossy
Stream size : 243 MiB (14%)
Title : MVO (Jaskier)
Language : Russian
Default : Yes
Forced : No

Audio #2
ID : 3
Format : AC-3
Format/Info : Audio Coding 3
Mode extension : CM (complete main)
Format settings, Endianness : Big
Codec ID : A_AC3
Duration : 1 h 28 min
Bit rate mode : Constant
Bit rate : 384 kb/s
Channel(s) : 2 channels
Channel positions : Front: L R
Sampling rate : 48.0 kHz
Frame rate : 31.250 FPS (1536 spf)
Compression mode : Lossy
Stream size : 243 MiB (14%)
Title : MVO (HDRezka Studio)
Language : Russian
Default : No
Forced : No

Audio #3
ID : 4
Format : AC-3
Format/Info : Audio Coding 3
Mode extension : CM (complete main)
Format settings, Endianness : Big
Codec ID : A_AC3
Duration : 1 h 28 min
Bit rate mode : Constant
Bit rate : 448 kb/s
Channel(s) : 6 channels
Channel positions : Front: L C R, Side: L R, LFE
Sampling rate : 48.0 kHz
Frame rate : 31.250 FPS (1536 spf)
Compression mode : Lossy
Stream size : 283 MiB (16%)
Language : English
Default : No
Forced : No

Text #1
ID : 5
Format : UTF-8
Codec ID : S_TEXT/UTF8
Codec ID/Info : UTF-8 Plain Text
Title : Full (Focs)
Language : Russian
Default : No
Forced : No

Text #2
ID : 6
Format : UTF-8
Codec ID : S_TEXT/UTF8
Codec ID/Info : UTF-8 Plain Text
Language : English
Default : No
Forced : No

Menu
00:00:00.000 : :Chapter 01
00:07:07.416 : :Chapter 02
00:14:02.000 : :Chapter 03
00:23:35.333 : :Chapter 04
00:28:05.875 : :Chapter 05
00:34:35.708 : :Chapter 06
00:41:56.875 : :Chapter 07
00:50:10.458 : :Chapter 08
00:56:19.333 : :Chapter 09
01:02:01.750 : :Chapter 10
01:10:09.208 : :Chapter 11
01:18:22.125 : :Chapter 12
01:23:01.750 : :Chapter 13
01:28:17.291 : :Chapter 14
Релиз от:

Автор релиза: pb.wtf



Скачать Счастливчик через торрент http://i99.fastpic.ru/big/2018/0211/7c/61b7a9abd2e4c6bd310a7230da605b7c.jpg Скачать фильм Счастливчик через торрент бесплантно в хорошем качестве Описание: История духовных поисков 90-летнего атеиста-одиночки Лаки. Заядлый курильщик, он поражает врачей своим здоровьем и ясным умом, ... 5.5 10 2
Info! Золотая раздача, скачанное не засчитывается.
Торрент: Зарегистрирован [2018-08-07 04:30] · скачан: 141 раз
Статус: √ проверено
Размер: 1.73 GB
Как cкачать? Как скачать Счастливчик через торрент | UTorrent

28-11-2019 20:33  

Отключить всю рекламу на сайте

    Дорогой пользователь! Огромная просьба, поблагодарите релизера, оцените раздачу и оставьте свои комментарий, если Вы скачали Счастливчик через торрент бесплатно! Внесите свою лепту в развитие PiratBit!
    Комментировать посты могут только пользователи прошедшие не сложную регистрацию
    Показать сообщения:    

    Счастливчик через торрент
    Скачать бесплатно Счастливчик
    Счастливчик скачать торрент
    Счастливчик смотреть онлайн
    Cкачать фильм Счастливчик бесплатно
    Счастливчик скачать торрент в хорошем качестве
    Счастливчик смотреть онлайн бесплатно в хорошем качестве


    Вы не можете начинать темы
    Вы не можете отвечать на сообщения
    Вы не можете редактировать свои сообщения
    Вы не можете удалять свои сообщения
    Вы не можете голосовать в опросах
    Вы не можете прикреплять файлы к сообщениям
    Вы можете скачивать файлы