Достать ножи: Стеклянная луковица

MVO

Добыча

Дубляж

Уэнсдэй

1 сезон

Тор

Дубляж

13 клиническая

1 сезон

Жестокая ночь

MVO

Одни из нас

1 сезон

Deluxe

pack

Рекомендуем

30

Пиратка

ВАЖНО

ВАЖНО

Ghostwire

Пиратка

jed

RePack

nioh2

RePack

RDR2

RePack

NEED FOR SPEED™ PAYBACK

RePack

скачать торрент

Кинопоиск HD

Острые козырьки 6 сезон

6 сезон

FAR CRY 6

RePack

скачать торрент

Лицензия

скачать торрент

MVO

1

1 сезон

скачать торрент

1 сезон

скачать торрент

Лицензия

  

Морской бой / Battleship (Питер Берг) [2012 г., Фантастика, Боевик, Триллер, Приключения, BDRip 1080p, HEVC, Дубляж]

Морской бой через торрент pb.wtf

Размер: 6.5 GB | Добавлен: 4 года 5 мес. назад | Торрент скачан:209 раз
Смотреть онлайн | Скачать | Поддержите нас   

07-08-2018 06:11 Морской бой Скачать торрент  

Морской бой / Battleship
Год выпуска: 2012
Страна: США
Жанр: Фантастика, Боевик, Триллер, Приключения
Продолжительность: 02:11:14
Перевод: Дубляж
Субтитры: Русские (полные, форсированные), английские

Режиссер: Питер Берг

rating

В ролях: Тейлор Китч, Таданобу Асано, Бруклин Декер, Рианна, Лиам Нисон, Александр Скарсгард, Джесси Племонс, Грегори Д. Гэдсон

Описание: Мы посылаем сигналы в космос и ждем ответа. Но уверены ли мы, что хотим его получить? Что если пришельцы потенциально опасны? В 2009 году на конференции в Вашингтоне астронавт Эдгар Митчелл, побывавший на Луне, сделал сенсационное заявление о существовании внеземной жизни. Теперь мы знаем, контакт не просто возможен, он неизбежен!
Доп. информация: -
H.265/HEVC (High Efficiency Video Coding) - это новый стандарт кодирования видео.
- Стандарт H.265/HEVC является логическим продолжением стандарта
H.264/AVC (Advanced Video Coding), и характеризуется более эффективными
алгоритмами сжатия, а также поддержкой высокого разрешения вплоть до 8K UHD
(8192x4320). Первая версия стандарта H.265 была опубликована в начале 2013 года.
- Рипы в фомате HEVC поддерживается не всеми аппаратными проигрывателями.
- Для корректного воспроизведения может потребоваться обновление ПО.
- Владельцам несовместимого железа просьба не беспокоить,
есть альтернативные релизы.
Качество: BDRip 1080p
Формат: MKV
Видео кодек: H.265
Аудио кодек: AC3
Видео: 1920x800, 6192 Kbps
Аудио#1: AC3, 6 ch, 448 Kbps - Русский, Дублированный
Аудио#2: AC3, 6 ch, 448 Kbps - Оригинал
Релиз от: Мичман
Общее
Уникальный идентификатор : 187953044454291727158305268354902933017 (0x8D66708C989B78D8B8A2230E8A403E19)
Полное имя : J:\ФИЛЬМЫ\Морской бой. 2012. 1080р. HEVC..mkv
Формат : Matroska
Версия формата : Version 4 / Version 2
Размер файла : 6,50 Гбайт
Продолжительность : 2 ч. 11 м.
Общий поток : 7091 Кбит/сек
Название фильма : Морской бой
Дата кодирования : UTC 2017-06-29 07:23:02
Программа кодирования : mkvmerge v9.2.0 ('Photograph') 64bit
Библиотека кодирования : libebml v1.3.3 + libmatroska v1.4.4
Обложка : Yes
Attachments : cover (2).jpg

Видео
Идентификатор : 5
Формат : HEVC
Формат/Информация : High Efficiency Video Coding
Идентификатор кодека : V_MPEGH/ISO/HEVC
Продолжительность : 2 ч. 11 м.
Битрейт : 6192 Кбит/сек
Ширина : 1920 пикселей
Высота : 800 пикселей
Соотношение сторон : 2,40:1
Режим частоты кадров : Постоянный
Частота кадров : 23,976 (24000/1001) кадра/сек
Бит/(Пиксели*Кадры) : 0.168
Размер потока : 5,68 Гбайт (87%)
Default : Да
Forced : Нет

Аудио #1
Идентификатор : 1
Формат : AC-3
Формат/Информация : Audio Coding 3
Идентификатор кодека : A_AC3
Продолжительность : 2 ч. 11 м.
Вид битрейта : Постоянный
Битрейт : 448 Кбит/сек
Каналы : 6 каналов
Расположение каналов : Front: L C R, Side: L R, LFE
Частота : 48,0 КГц
Частота кадров : 31,250 кадров/сек (1536 SPF)
Битовая глубина : 16 бит
Метод сжатия : С потерями
Размер потока : 421 Мбайт (6%)
ServiceKind/String : Complete Main
Default : Нет
Forced : Нет

Аудио #2
Идентификатор : 6
Формат : AC-3
Формат/Информация : Audio Coding 3
Идентификатор кодека : A_AC3
Продолжительность : 2 ч. 11 м.
Вид битрейта : Постоянный
Битрейт : 448 Кбит/сек
Каналы : 6 каналов
Расположение каналов : Front: L C R, Side: L R, LFE
Частота : 48,0 КГц
Частота кадров : 31,250 кадров/сек (1536 SPF)
Битовая глубина : 16 бит
Метод сжатия : С потерями
Размер потока : 421 Мбайт (6%)
Язык : Russian
ServiceKind/String : Complete Main
Default : Да
Forced : Нет

Текст #1
Идентификатор : 2
Формат : UTF-8
Идентификатор кодека : S_TEXT/UTF8
Идентификатор кодека/Информация : UTF-8 Plain Text
Продолжительность : 2 ч. 9 м.
Битрейт : 45 бит/сек
ElementCount : 1386
Размер потока : 43,2 Кбайт (0%)
Default : Да
Forced : Нет

Текст #2
Идентификатор : 3
Формат : UTF-8
Идентификатор кодека : S_TEXT/UTF8
Идентификатор кодека/Информация : UTF-8 Plain Text
Продолжительность : 2 ч. 8 м.
Битрейт : 1 бит/сек
ElementCount : 32
Размер потока : 1,65 Кбайт (0%)
Default : Нет
Forced : Нет

Текст #3
Идентификатор : 4
Формат : UTF-8
Идентификатор кодека : S_TEXT/UTF8
Идентификатор кодека/Информация : UTF-8 Plain Text
Продолжительность : 2 ч. 9 м.
Битрейт : 77 бит/сек
ElementCount : 1107
Размер потока : 74,1 Кбайт (0%)
Default : Нет
Forced : Нет

Меню
00:00:00.000 : en:(01)00:00:00:000
00:09:24.105 : en:(02)00:09:24:105
00:15:04.320 : en:(03)00:15:04:320
00:23:08.678 : en:(04)00:23:08:678
00:29:44.032 : en:(05)00:29:44:032
00:36:26.809 : en:(06)00:36:26:809
00:42:01.268 : en:(07)00:42:01:268
00:49:09.655 : en:(08)00:49:09:655
00:56:08.323 : en:(09)00:56:08:323
01:00:02.223 : en:(10)01:00:02:223
01:09:50.519 : en:(11)01:09:50:519
01:15:26.730 : en:(12)01:15:26:730
01:20:56.935 : en:(13)01:20:56:935
01:29:47.423 : en:(14)01:29:47:423
01:37:14.411 : en:(15)01:37:14:411
01:43:32.247 : en:(16)01:43:32:247
01:49:38.572 : en:(17)01:49:38:572
01:56:20.682 : en:(18)01:56:20:682
02:00:41.359 : en:(19)02:00:41:359
02:09:33.974 : en:(20)02:09:33:974
02:11:14.658 : en:(21)02:11:14:658




Скачать Морской бой через торрент https://d.radikal.ru/d08/1808/ef/e951351deb19.jpg Скачать, смотреть онлайн Морской бой бесплантно в хорошем качестве Описание: Мы посылаем сигналы в космос и ждем ответа. Но уверены ли мы, что хотим его получить? Что если пришельцы потенциально опасны? В ... 10 10 3
Торрент: Зарегистрирован [2018-08-07 06:11] · скачан: 209 раз
Статус: √ проверено
Размер: 6.5 GB
Как cкачать? Как скачать Морской бой через торрент | UTorrent

% Раздел Тема Автор DL S | L
Ultra HD (UHD: 2K, 4K, 8K) [ 72.41 GB ] Морской бой / Battleship | DUB | 2160p sheker187 Скачать
1 | 0
Фильмы (Blu-ray, BD-Remux, HDDVD) [ 36.78 GB ] Морской бой / Battleship | DUB + 2xAVO | 1080p sheker187 Скачать
1 | 0
Ultra HD (UHD: 2K, 4K, 8K) [ 66.19 GB ] Морской бой / Battleship | DUB | 2160p bober100 Скачать
1 | 0
Фильмы (HD 720p, 1080p) (48-60 fps) [ 6.84 GB ] Морской бой / Battleship | Лицензия | 720p, Дубляж, Лицензия -=DANTE=- Скачать
1 | 0
Фильмы (Blu-ray, BD-Remux, HDDVD) [ 39.57 GB ] Морской бой / Battleship / 2012 / Blu-ray CEE | DUB | Blu-ray CEE (Питер Берг shuller Скачать
1 | 0
Фильмы с авторской озвучкой [ 2.18 GB ] Морской бой / Battleship | AVO | BDRip killermax2013 Скачать
1 | 0
Фильмы 2012 [ 1.46 GB ] Морской бой / Battleship | | BDRip Demonessa Скачать
3 | 0

28-11-2019 20:33  


Отключить вcю реклaмy на сайте, в т.ч. и в плеере онлайн просмотра!

    Дорогой пользователь! Огромная просьба, поблагодарите релизера, оцените раздачу и оставьте свои комментарий, если Вы скачали Морской бой через торрент бесплатно!!
    Комментировать посты могут только пользователи прошедшие не сложную регистрацию
    Показать сообщения:    


    Морской бой через торрент
    Скачать бесплатно Морской бой
    Морской бой скачать торрент
    Морской бой смотреть онлайн
    Cкачать фильм Морской бой бесплатно
    Морской бой скачать торрент в хорошем качестве
    Морской бой смотреть онлайн бесплатно в хорошем качестве
    Вы не можете начинать темы
    Вы не можете отвечать на сообщения
    Вы не можете редактировать свои сообщения
    Вы не можете удалять свои сообщения
    Вы не можете голосовать в опросах
    Вы не можете прикреплять файлы к сообщениям
    Вы можете скачивать файлы
    Морской бой / Battleship [2012 г., Фантастика, Боевик, Триллер, Приключения, BDRip 1080p, HEVC, Дубляж] смотреть онлайн, скачать торрент picoco.icu