2 сезон

iTunes

MVO

1

2 сезон

iTunes

iTunes

1 сезон

RePack

30

Новинка

ВАЖНО

ИГРА 18+

pack

RePack

MK11
pack

Легкие деньги

RePack

jed

RePack

fifa19

RePack

RDR2

RePack

NEED FOR SPEED™ PAYBACK

4 сезон

9 сезон

Бесстыжие 9 сезон

Все сериалы

все сериалы на PB.wtf

RePack

FAR CRY 5

Anonymous, доброй ночи, мы не успеваем собрать деньги на оплату серверов за декабрь и январь, помогите нам пожалуйста в это трудное время. В качестве благодарности мы отключим Вам всю рекламу на сайте (укажите свой ник в строку Ваше имя)!

×
  
Magnet ссылка

Лига справедливости / Justice League (Зак Снайдер) [2017, фантастика, фэнтези, боевик, приключения, BDRip-HEVC 1080p, (10bit)] DUB [Лицензия] pb.wtf

Лига справедливости через торрент pb.wtf

Размер: 8.11 GB | Добавлен: 2 года 5 мес. назад | Торрент скачан:308 раз
Скачать  

07-08-2018 07:49 Лига справедливости Скачать торрент  

Лига справедливости / Justice League
«Нельзя спасти мир в одиночку»
Год выпуска: 2017
Страна: США
Жанр: фантастика, фэнтези, боевик, приключения
Продолжительность: 02:00:02
Перевод: Дублированное | Лицензия
Субтитры: Русские (форсированные, полные), English

Режиссер: Зак Снайдер

rating

В ролях:

Бен Аффлек (Batman / Bruce Wayne), Генри Кавилл (Superman / Clark Kent), Эми Адамс (Lois Lane), Галь Гадот (Wonder Woman / Diana Prince), Эзра Миллер (The Flash / Barry Allen), Джейсон Момоа (Aquaman / Arthur Curry), Рэй Фишер (Cyborg / Victor Stone), Джереми Айронс (Alfred), Дайан Лэйн (Martha Kent), Конни Нильсен (Queen Hippolyta), Дж.К. Симмонс (Commissioner Gordon), Киран Хайндс (Steppenwolf, озвучка)
Описание:

Брюс Уэйн, вдохновленный самопожертвованием Супермена, вновь обретает веру в человечество. Он заручается поддержкой новой союзницы, Дианы Принс, чтобы сразиться с еще более могущественным противником. Бэтмен и Чудо-Женщина быстро набирают команду сверхлюдей для борьбы с пробудившейся угрозой. Но несмотря на уникальный состав отряда супергероев - Бэтмен, Чудо-Женщина, Аквамэн, Киборг и Флэш, - быть может, спасать планету от вторжения катастрофических масштабов уже слишком поздно.

Качество: BDRip-HEVC 1080p
Формат: MKV
Видео кодек: H.264
Аудио кодек: AC3

Видео: 1920x1080, 23.976 кадр/сек, 8768 Кбит/сек, (Main 10@L4.1@High) 10bit
Аудио#1: 48 kHz, AC3, 5.1, 448 Kbps | Дублированный | RUS |
Аудио#2: 48 kHz, AC3, 5.1, 448 Kbps | Оригинал | ENG |
скриншот  скриншот  скриншот  скриншот  

скриншот  скриншот  скриншот  скриншот  

General
Unique ID : 208779646557205148258401737223522782314 (0x9D117F4F98F191EE44C699ADF1688C6A)
Complete name : F:HEVCJustice League (2017) BDRip 1080p [HEVC] 10Bit_Cthulhu.mkv
Format : Matroska
Format version : Version 4 / Version 2
File size : 8.11 GiB
Duration : 2 h 0 min
Overall bit rate : 9 666 kb/s
Movie name : Justice League (2017)_rip_by_Cthulhu
Encoded date : UTC 2018-03-08 13:18:57
Writing application : mkvmerge v21.0.0 ('Tardigrades Will Inherit The Earth') 64-bit
Writing library : libebml v1.3.5 + libmatroska v1.4.8
Cover : Yes
Attachments : cover1.jpg

Video
ID : 1
Format : HEVC
Format/Info : High Efficiency Video Coding
Format profile : Main 10@L4.1@High
Codec ID : V_MPEGH/ISO/HEVC
Duration : 2 h 0 min
Bit rate : 8 768 kb/s
Width : 1 920 pixels
Height : 1 080 pixels
Display aspect ratio : 16:9
Frame rate mode : Constant
Frame rate : 23.976 (24000/1001) FPS
Color space : YUV
Chroma subsampling : 4:2:0
Bit depth : 10 bits
Bits/(Pixel*Frame) : 0.176
Stream size : 7.35 GiB (91%)
Writing library : x265 2.6+6-2e684b80d90f:[Windows][GCC 7.2.0][64 bit] 10bit
Encoding settings : cpuid=1050111 / frame-threads=4 / numa-pools=4 / wpp / no-pmode / no-pme / no-psnr / no-ssim / log-level=2 / input-csp=1 / input-res=1920x1080 / interlace=0 / total-frames=0 / level-idc=41 / high-tier=1 / uhd-bd=0 / ref=5 / no-allow-non-conformance / no-repeat-headers / annexb / no-aud / no-hrd / info / hash=0 / no-temporal-layers / open-gop / min-keyint=23 / keyint=250 / bframes=8 / b-adapt=2 / b-pyramid / bframe-bias=0 / rc-lookahead=40 / lookahead-slices=4 / scenecut=40 / no-intra-refresh / ctu=64 / min-cu-size=8 / rect / no-amp / max-tu-size=32 / tu-inter-depth=4 / tu-intra-depth=4 / limit-tu=0 / rdoq-level=2 / dynamic-rd=0.00 / no-ssim-rd / signhide / no-tskip / nr-intra=0 / nr-inter=0 / no-constrained-intra / no-strong-intra-smoothing / max-merge=3 / limit-refs=3 / limit-modes / me=3 / subme=7 / merange=57 / temporal-mvp / weightp / weightb / no-analyze-src-pics / deblock=-3:-3 / no-sao / no-sao-non-deblock / rd=4 / no-early-skip / rskip / no-fast-intra / no-tskip-fast / no-cu-lossless / no-b-intra / no-splitrd-skip / rdpenalty=0 / psy-rd=1.00 / psy-rdoq=1.00 / no-rd-refine / analysis-reuse-mode=0 / no-lossless / cbqpoffs=0 / crqpoffs=0 / rc=crf / crf=19.5 / qcomp=0.60 / qpstep=4 / stats-write=0 / stats-read=0 / vbv-maxrate=50000 / vbv-bufsize=50000 / vbv-init=0.9 / crf-max=0.0 / crf-min=0.0 / ipratio=1.40 / pbratio=1.30 / aq-mode=1 / aq-strength=0.90 / cutree / zone-count=0 / no-strict-cbr / qg-size=32 / no-rc-grain / qpmax=69 / qpmin=0 / no-const-vbv / sar=0 / overscan=0 / videoformat=5 / range=0 / colorprim=2 / transfer=2 / colormatrix=1 / chromaloc=0 / display-window=0 / max-cll=0,0 / min-luma=0 / max-luma=1023 / log2-max-poc-lsb=8 / vui-timing-info / vui-hrd-info / slices=1 / opt-qp-pps / opt-ref-list-length-pps / no-multi-pass-opt-rps / scenecut-bias=0.05 / no-opt-cu-delta-qp / aq-motion / no-hdr / no-hdr-opt / no-dhdr10-opt / analysis-reuse-level=5 / scale-factor=0 / refine-intra=0 / refine-inter=0 / refine-mv=0 / no-limit-sao / ctu-info=0 / no-lowpass-dct / refine-mv-type=0 / copy-pic=1
Language : English
Default : Yes
Forced : Yes
Color range : Limited
Matrix coefficients : BT.709

Audio #1
ID : 2
Format : AC-3
Format/Info : Audio Coding 3
Format settings, Endianness : Big
Codec ID : A_AC3
Duration : 2 h 0 min
Bit rate mode : Constant
Bit rate : 448 kb/s
Channel(s) : 6 channels
Channel positions : Front: L C R, Side: L R, LFE
Sampling rate : 48.0 kHz
Frame rate : 31.250 FPS (1536 SPF)
Bit depth : 16 bits
Compression mode : Lossy
Stream size : 385 MiB (5%)
Language : Russian
Service kind : Complete Main
Default : No
Forced : No

Audio #2
ID : 3
Format : AC-3
Format/Info : Audio Coding 3
Format settings, Endianness : Big
Codec ID : A_AC3
Duration : 2 h 0 min
Bit rate mode : Constant
Bit rate : 448 kb/s
Channel(s) : 6 channels
Channel positions : Front: L C R, Side: L R, LFE
Sampling rate : 48.0 kHz
Frame rate : 31.250 FPS (1536 SPF)
Bit depth : 16 bits
Compression mode : Lossy
Stream size : 385 MiB (5%)
Language : English
Service kind : Complete Main
Default : No
Forced : No

Text #1
ID : 4
Format : UTF-8
Codec ID : S_TEXT/UTF8
Codec ID/Info : UTF-8 Plain Text
Duration : 1 h 57 min
Bit rate : 0 b/s
Count of elements : 24
Stream size : 818 Bytes (0%)
Title : Rus Forced
Language : Russian
Default : Yes
Forced : Yes

Text #2
ID : 5
Format : UTF-8
Codec ID : S_TEXT/UTF8
Codec ID/Info : UTF-8 Plain Text
Duration : 1 h 58 min
Bit rate : 69 b/s
Count of elements : 1024
Stream size : 60.3 KiB (0%)
Title : Rus full
Language : Russian
Default : No
Forced : No

Text #3
ID : 6
Format : UTF-8
Codec ID : S_TEXT/UTF8
Codec ID/Info : UTF-8 Plain Text
Duration : 1 h 49 min
Bit rate : 43 b/s
Count of elements : 1279
Stream size : 35.3 KiB (0%)
Language : English
Default : No
Forced : No

Menu
00:00:00.000 : en:Chapter 1
00:10:56.155 : en:Chapter 2
00:19:16.488 : en:Chapter 3
00:30:41.673 : en:Chapter 4
00:40:19.667 : en:Chapter 5
00:49:56.535 : en:Chapter 6
01:01:26.891 : en:Chapter 7
01:09:41.552 : en:Chapter 8
01:19:18.587 : en:Chapter 9
01:30:34.512 : en:Chapter 10
01:40:33.569 : en:Chapter 11
01:48:43.058 : en:Chapter 12

pb.wtf



Скачать Лига справедливости через торрент http://c.radikal.ru/c05/1803/da/6fa2addee5a8.jpg Скачать фильм Лига справедливости через торрент бесплантно в хорошем качестве Описание: Брюс Уэйн, вдохновленный самопожертвованием Супермена, вновь обретает веру в человечество. Он заручается поддержкой новой ... 9.9 10 9
Торрент: Зарегистрирован [2018-08-07 07:49] · скачан: 308 раз
Статус: √ проверено
Размер: 8.11 GB
Как cкачать? Как скачать Лига справедливости через торрент | UTorrent

% Раздел Тема Автор DL S | L
Зарубежные Мультфильмы (BDRip 1080p, 720p, Blu-ray, BD-Remux) [ 6.75 GB ] Темная Лига справедливости: Война Апоколипса / Justice League Dark: Apokolips War [2020 Мультфильм BDRip 1080p] DUB bober100 Скачать
6 | 0
Зарубежные Мультфильмы (BDRip 1080p, 720p, Blu-ray, BD-Remux) [ 11.14 GB ] Темная Лига справедливости: Война Апоколипса / Justice League Dark: Apokolips War [2020 Мультфильм BD Remux 1080p] DUB bober100 Скачать
8 | 0
Зарубежные Мультфильмы (BDRip 1080p, 720p, Blu-ray, BD-Remux) [ 4.55 GB ] Темная Лига справедливости: Война Апоколипса / Justice League Dark: Apokolips War [2020 Мультфильм BDRip 720p] DUB bober100 Скачать
9 | 0
Иностранные мультфильмы [ 1.42 GB ] Темная Лига справедливости: Война Апоколипса / Justice League Dark: Apokolips War [2020 Мультфильм BDRip] bober100 Скачать
11 | 1
Ultra HD (UHD: 2K, 4K, 8K) — видео сверхвысокой чёткости [ 43.74 GB ] Лига справедливости / Justice League [2017 UHD BDRemux 2160p] DUB [IMAX Edition] [Dolby Vision] sheker187 Скачать
1 | 0
Ultra HD (UHD: 2K, 4K, 8K) — видео сверхвысокой чёткости [ 24.94 GB ] Лига справедливости / Justice League [2017 UHD BDRip 2160p] DUB [IMAX Edition] sheker187 Скачать
1 | 0
Фильмы (Blu-ray, BD-Remux, HDDVD) [ 22.49 GB ] Лига справедливости / Justice League [2017 Blu-Ray Remux 1080p] 2x[Dub] killermax2013 Скачать
1 | 0

28-11-2019 20:33  

Отключить всю рекламу на сайте

    Дорогой пользователь! Огромная просьба, поблагодарите релизера, оцените раздачу и оставьте свои комментарий, если Вы скачали Лига справедливости через торрент бесплатно! Внесите свою лепту в развитие PiratBit!
    Комментировать посты могут только пользователи прошедшие не сложную регистрацию
    Показать сообщения:    

    Лига справедливости через торрент
    Скачать бесплатно Лига справедливости
    Лига справедливости скачать торрент
    Лига справедливости смотреть онлайн
    Cкачать фильм Лига справедливости бесплатно
    Лига справедливости скачать торрент в хорошем качестве
    Лига справедливости смотреть онлайн бесплатно в хорошем качестве


    Вы не можете начинать темы
    Вы не можете отвечать на сообщения
    Вы не можете редактировать свои сообщения
    Вы не можете удалять свои сообщения
    Вы не можете голосовать в опросах
    Вы не можете прикреплять файлы к сообщениям
    Вы можете скачивать файлы