Ссылка на приватное зеркало нашего сайта всего за 1$. Внимание количество ограничено!!!

2 сезон

iTunes

1 сезон

1

2 сезон

2 сезон

iTunes

1 сезон

RePack

30

Ultimate

ВАЖНО

ИГРА 18+

pack

RePack

MK11
pack

Забери бонус

RePack

jed

!!Акция!!

Alien_Rage

RePack

fifa19

RePack

Assassins Creed: Odyssey

RePack

NEED FOR SPEED™ PAYBACK

4 сезон

9 сезон

Бесстыжие 9 сезон

Все сериалы

все сериалы на PB.wtf

RePack

FAR CRY 5
  

Джессика Джонс / Jessica Jones / Сезон: 2 / Серии: 1-13 из 13 (Ута Бризвитц, Розмари Родригез, Саймон Селлан Джоунс) [2018, фантастика, боевик, триллер, UHD WEBRip 2160p] 4xMVO pb.wtf

Джессика Джонс через торрент pb.wtf

Размер: 121.38 GB | Добавлен: 2 года 3 мес. назад | Торрент скачан:4 раза
Скачать  

07-08-2018 13:10 Джессика Джонс Скачать торрент  

Джессика Джонс / Jessica Jones

Год выпуска: 2018
Страна: США
Жанр: фантастика, боевик, триллер, драма, криминал
Продолжительность: 13 x ~ 00:53:00
Перевод: Профессиональный многоголосый, любительский многоголосый
Субтитры: Русские, английские, французские
Режиссер: Ута Бризвитц , Розмари Родригез , Саймон Селлан Джоунс
В ролях:

Кристен Риттер (Jessica Jones), Рэйчел Тейлор (Trish Walker), Ика Дэрвилл (Malcolm Ducasse), Кэрри-Энн Мосс (Jeri Hogarth), Дэвид Теннант (Kilgrave), Джанет МакТир (Alisa Jones), Дж.Р. Рамирез (Oscar Arocho), Уил Трэвэл (Will Simpson), Леа Гибсон (Inez Green), Сьюзи Абромейт (Pam), Ребекка Де Морнэй (Dorothy Walker), Майк Колтер (Luke Cage)
Описание:
После трагических событий, оборвавших короткую супергеройскую карьеру Джессики Джонс, девушка пытается восстановить свою личную жизнь и свою карьеру частного детектива, расследуя таинственную активность людей со сверхспособностями в Нью-Йорке.
Рейтинг:

Качество: UHD WEBRip 2160p
Формат: MKV
Видео: HEVC, HDR, 25.2 Мбит/с, 3840x2160, 23.976 Кадр/с
Аудио #1: Русский / (AC3, 6 ch, 448 Кбит/с) / Профессиональный многоголосый закадровый | Lostfilm
Аудио #2: Русский / (AC3, 6 ch, 640 Кбит/с) / Профессиональный многоголосый закадровый | BaibaKo
Аудио #3: Русский / (AC3, 2 ch, 192 Кбит/с) / Любительский многоголосый закадровый | ColdFilm
Аудио #4: Русский / (AC3, 6 ch, 384 Кбит/с) / Профессиональный многоголосый закадровый | NewStudio
Аудио #5: Английский / (E-AC3+Atmos, 6 ch, 448 Кбит/с) /| Original
Аудио #6: Французский / (AC3, 6 ch, 384 Кбит/с) / | DUB
Реклама: Отсутствует!
Complete name : E:\Marvels.Jessica.Jones.S02.2160p.NF.WEBRip.x265.10bit.HDR.DDP5.1.Atmos-SpaceHD13\Marvels.Jessica.Jones.S02E01.2160p.HDR.NF.WEBRip.DD.5.1.ATMOS.EN.FR.x265-SpaceHD13.mkv
Format : Matroska
Format version : Version 4 / Version 2
File size : 10.3 GiB
Duration : 53 min 55 s
Overall bit rate : 27.3 Mb/s
Movie name : Marvels.Jessica.Jones.S02E01.2160p.HDR.NF.WEBRip.DD.5.1.ATMOS.EN.FR.x265-SpaceHD13
Encoded date : UTC 2018-07-23 17:27:54
Writing application : mkvmerge v25.0.0 ('Prog Noir') 64-bit
Writing library : libebml v1.3.6 + libmatroska v1.4.9

Video
ID : 1
Format : HEVC
Format/Info : High Efficiency Video Coding
Commercial name : HDR10
Format profile : Main 10@L5@Main
Codec ID : V_MPEGH/ISO/HEVC
Duration : 53 min 1 s
Bit rate : 25.2 Mb/s
Width : 3 840 pixels
Height : 2 160 pixels
Display aspect ratio : 16:9
Frame rate mode : Constant
Frame rate : 23.976 (24000/1001) FPS
Color space : YUV
Chroma subsampling : 4:2:0
Bit depth : 10 bits
Bits/(Pixel*Frame) : 0.127
Stream size : 9.33 GiB (91%)
Title : Marvels.Jessica.Jones.S02E01.2160p.HDR.NF.WEBRip.DD.5.1.ATMOS.EN.FR.x265-SpaceHD13
Writing library : x265 2.6+31-3712d13c09bf:[Windows][GCC 7.2.0][64 bit] 10bit
Encoding settings : cpuid=1173503 / frame-threads=3 / numa-pools=8 / wpp / no-pmode / no-pme / no-psnr / no-ssim / log-level=2 / input-csp=1 / input-res=3840x2160 / interlace=0 / total-frames=76291 / level-idc=0 / high-tier=1 / uhd-bd=0 / ref=3 / no-allow-non-conformance / repeat-headers / annexb / no-aud / no-hrd / info / hash=0 / no-temporal-layers / open-gop / min-keyint=23 / keyint=250 / gop-lookahead=0 / bframes=4 / b-adapt=2 / b-pyramid / bframe-bias=0 / rc-lookahead=20 / lookahead-slices=8 / scenecut=40 / radl=0 / no-intra-refresh / ctu=64 / min-cu-size=8 / no-rect / no-amp / max-tu-size=32 / tu-inter-depth=1 / tu-intra-depth=1 / limit-tu=0 / rdoq-level=0 / dynamic-rd=0.00 / no-ssim-rd / signhide / no-tskip / nr-intra=0 / nr-inter=0 / no-constrained-intra / strong-intra-smoothing / max-merge=2 / limit-refs=3 / no-limit-modes / me=1 / subme=2 / merange=57 / temporal-mvp / weightp / no-weightb / no-analyze-src-pics / deblock=0:0 / sao / no-sao-non-deblock / rd=3 / no-early-skip / rskip / no-fast-intra / no-tskip-fast / no-cu-lossless / no-b-intra / no-splitrd-skip / rdpenalty=0 / psy-rd=2.00 / psy-rdoq=0.00 / no-rd-refine / no-lossless / cbqpoffs=0 / crqpoffs=0 / rc=crf / crf=17.0 / qcomp=0.60 / qpstep=4 / stats-write=0 / stats-read=0 / ipratio=1.40 / pbratio=1.30 / aq-mode=1 / aq-strength=1.00 / cutree / zone-count=0 / no-strict-cbr / qg-size=32 / no-rc-grain / qpmax=69 / qpmin=0 / no-const-vbv / sar=0 / overscan=0 / videoformat=5 / range=0 / colorprim=9 / transfer=16 / colormatrix=9 / chromaloc=0 / display-window=0 / master-display=G(13250,34500)B(7500,3000)R(34000,16000)WP(15635,16450)L(40000000,50) / max-cll=0,0 / min-luma=0 / max-luma=1023 / log2-max-poc-lsb=8 / vui-timing-info / vui-hrd-info / slices=1 / no-opt-qp-pps / no-opt-ref-list-length-pps / no-multi-pass-opt-rps / scenecut-bias=0.05 / no-opt-cu-delta-qp / no-aq-motion / hdr / no-hdr-opt / no-dhdr10-opt / analysis-reuse-level=5 / scale-factor=0 / refine-intra=0 / refine-inter=0 / refine-mv=0 / no-limit-sao / ctu-info=0 / no-lowpass-dct / refine-mv-type=0 / copy-pic=1
Default : Yes
Forced : No
Color range : Limited
Color primaries : BT.2020
Transfer characteristics : PQ
Matrix coefficients : BT.2020 non-constant
Mastering display color pri : Display P3
Mastering display luminance : min: 0.0050 cd/m2, max: 4000 cd/m2

Audio #1
ID : 2
Format : AC-3
Format/Info : Audio Coding 3
Codec ID : A_AC3
Duration : 53 min 3 s
Bit rate mode : Constant
Bit rate : 448 kb/s
Channel(s) : 6 channels
Channel positions : Front: L C R, Side: L R, LFE
Sampling rate : 48.0 kHz
Frame rate : 31.250 FPS (1536 SPF)
Bit depth : 16 bits
Compression mode : Lossy
Delay relative to video : 24 ms
Stream size : 170 MiB (2%)
Title : Marvels.Jessica.Jones.S02E01.2160p.HDR.NF.WEBRip.DD.5.1.ATMOS.EN.FR.x265-SpaceHD13[lostFilm]
Language : Russian
Service kind : Complete Main
Default : No
Forced : No

Audio #2
ID : 3
Format : AC-3
Format/Info : Audio Coding 3
Codec ID : A_AC3
Duration : 53 min 3 s
Bit rate mode : Constant
Bit rate : 640 kb/s
Channel(s) : 6 channels
Channel positions : Front: L C R, Side: L R, LFE
Sampling rate : 48.0 kHz
Frame rate : 31.250 FPS (1536 SPF)
Bit depth : 16 bits
Compression mode : Lossy
Delay relative to video : 24 ms
Stream size : 243 MiB (2%)
Title : Marvels.Jessica.Jones.S02E01.2160p.HDR.NF.WEBRip.DD.5.1.ATMOS.EN.FR.x265-SpaceHD13[BaibaKo]
Language : Russian
Service kind : Complete Main
Default : No
Forced : No

Audio #3
ID : 4
Format : AC-3
Format/Info : Audio Coding 3
Codec ID : A_AC3
Duration : 53 min 55 s
Bit rate mode : Constant
Bit rate : 192 kb/s
Channel(s) : 2 channels
Channel positions : Front: L R
Sampling rate : 48.0 kHz
Frame rate : 31.250 FPS (1536 SPF)
Bit depth : 16 bits
Compression mode : Lossy
Delay relative to video : 24 ms
Stream size : 74.1 MiB (1%)
Title : Marvels.Jessica.Jones.S02E01.2160p.HDR.NF.WEBRip.DD.5.1.ATMOS.EN.FR.x265-SpaceHD13[Coldfilm]
Language : Russian
Service kind : Complete Main
Default : No
Forced : No

Audio #4
ID : 5
Format : AC-3
Format/Info : Audio Coding 3
Codec ID : A_AC3
Duration : 53 min 3 s
Bit rate mode : Constant
Bit rate : 384 kb/s
Channel(s) : 6 channels
Channel positions : Front: L C R, Side: L R, LFE
Sampling rate : 48.0 kHz
Frame rate : 31.250 FPS (1536 SPF)
Bit depth : 16 bits
Compression mode : Lossy
Delay relative to video : 24 ms
Stream size : 146 MiB (1%)
Title : Marvels.Jessica.Jones.S02E01.2160p.HDR.NF.WEBRip.DD.5.1.ATMOS.EN.FR.x265-SpaceHD13[NewStudio]
Language : Russian
Service kind : Complete Main
Default : No
Forced : No

Audio #5
ID : 6
Format : E-AC-3
Format/Info : Enhanced Audio Coding 3
Format profile : E-AC-3+Atmos / E-AC-3
Codec ID : A_EAC3
Duration : 53 min 1 s
Bit rate mode : Constant
Bit rate : 448 kb/s
Channel(s) : 15 objects / 6 channels
Channel positions : 15 objects / Front: L C R, Side: L R, LFE
Sampling rate : 48.0 kHz
Frame rate : 187.500 FPS (256 SPF)
Compression mode : Lossy
Delay relative to video : 11 ms
Stream size : 170 MiB (2%)
Title : Marvels.Jessica.Jones.S02E01.2160p.HDR.NF.WEBRip.DD.5.1.ATMOS.EN.FR.x265-SpaceHD13[ATMOS]
Language : English
Service kind : Complete Main
Default : Yes
Forced : No

Audio #6
ID : 7
Format : AC-3
Format/Info : Audio Coding 3
Codec ID : A_AC3
Duration : 53 min 1 s
Bit rate mode : Constant
Bit rate : 384 kb/s
Channel(s) : 6 channels
Channel positions : Front: L C R, Side: L R, LFE
Sampling rate : 48.0 kHz
Frame rate : 31.250 FPS (1536 SPF)
Bit depth : 16 bits
Compression mode : Lossy
Delay relative to video : 11 ms
Stream size : 146 MiB (1%)
Title : Marvels.Jessica.Jones.S02E01.2160p.HDR.NF.WEBRip.DD.5.1.ATMOS.EN.FR.x265-SpaceHD13
Language : French
Service kind : Complete Main
Default : No
Forced : No

Text #1
ID : 8
Format : UTF-8
Codec ID : S_TEXT/UTF8
Codec ID/Info : UTF-8 Plain Text
Duration : 49 min 48 s
Bit rate : 64 b/s
Count of elements : 665
Stream size : 23.5 KiB (0%)
Language : English
Default : No
Forced : No

Text #2
ID : 9
Format : UTF-8
Codec ID : S_TEXT/UTF8
Codec ID/Info : UTF-8 Plain Text
Duration : 52 min 39 s
Bit rate : 0 b/s
Count of elements : 5
Stream size : 180 Bytes (0%)
Title : Forced
Language : French
Default : No
Forced : No

Text #3
ID : 10
Format : UTF-8
Codec ID : S_TEXT/UTF8
Codec ID/Info : UTF-8 Plain Text
Duration : 52 min 39 s
Bit rate : 56 b/s
Count of elements : 665
Stream size : 21.8 KiB (0%)
Language : French
Default : No
Forced : No

Text #4
ID : 11
Format : UTF-8
Codec ID : S_TEXT/UTF8
Codec ID/Info : UTF-8 Plain Text
Duration : 49 min 54 s
Bit rate : 105 b/s
Count of elements : 663
Stream size : 38.6 KiB (0%)
Language : Russian
Default : No
Forced : No

Text #5
ID : 12
Format : PGS
Muxing mode : zlib
Codec ID : S_HDMV/PGS
Codec ID/Info : Picture based subtitle format used on BDs/HD-DVDs
Duration : 49 min 54 s
Bit rate : 58.2 kb/s
Count of elements : 1326
Stream size : 20.8 MiB (0%)
Language : Russian
Default : Yes
Forced : No
pb.wtf



Скачать Джессика Джонс через торрент https://a.radikal.ru/a42/1808/c4/3fce2ae880cc.png Скачать фильм Джессика Джонс через торрент бесплантно в хорошем качестве Описание: После трагических событий, оборвавших короткую супергеройскую карьеру Джессики Джонс, девушка пытается восстановить свою личную ... 10 10 1
Info! Золотая раздача, скачанное не засчитывается.
Торрент: Зарегистрирован [2018-08-07 13:10] · скачан: 4 раз
Статус: √ проверено
Размер: 121.38 GB
Как cкачать? Как скачать Джессика Джонс через торрент | qTorrent

28-11-2019 20:33  

Отключить всю рекламу на сайте

    Дорогой пользователь! Огромная просьба, поблагодарите релизера, оцените раздачу и оставьте свои комментарий, если Вы скачали Джессика Джонс через торрент бесплатно! Внесите свою лепту в развитие PiratBit!
    Комментировать посты могут только пользователи прошедшие не сложную регистрацию
    Показать сообщения:    

    Джессика Джонс через торрент
    Скачать бесплатно Джессика Джонс
    Джессика Джонс скачать торрент
    Джессика Джонс смотреть онлайн
    Cкачать фильм Джессика Джонс бесплатно
    Джессика Джонс скачать торрент в хорошем качестве
    Джессика Джонс смотреть онлайн бесплатно в хорошем качестве


    Вы не можете начинать темы
    Вы не можете отвечать на сообщения
    Вы не можете редактировать свои сообщения
    Вы не можете удалять свои сообщения
    Вы не можете голосовать в опросах
    Вы не можете прикреплять файлы к сообщениям
    Вы можете скачивать файлы