Ссылка на приватное зеркало нашего сайта всего за 1$. Внимание количество ограничено!!!

2 сезон

iTunes

iTunes

1

iTunes

iTunes

iTunes

WEBRip

iTunes

30
pack

Вам бонус

ВАЖНО

!!Акция!!

Alien_RageХит недели

RePack

Horizon Zero Dawn

ИГРА 18+

pack

RePack

jed

!!Акция!!

Alien_Rage

RePack

fifa19

RePack

Assassins Creed: Odyssey

RePack

NEED FOR SPEED™ PAYBACK

4 сезон

9 сезон

Бесстыжие 9 сезон

Все сериалы

все сериалы на PB.wtf

RePack

FAR CRY 5
  

Беженец / Refugiado (Диего Лерман) [2014 г., Драма, триллер, WEBRip, Любительский (многоголосый)] [GreenРай Studio] pb.wtf

Беженец через торрент pb.wtf

Размер: 1.32 GB | Добавлен: 2 года 1 мес. назад | Торрент скачан:2 раза
Скачать  

07-08-2018 14:15 Беженец Скачать торрент  

Беженец / Refugiado
Год выпуска: 2014
Страна: Польша, Аргентина, Франция, Германия, Колумбия
Жанр: Драма, триллер
Продолжительность: 01:30:08
Перевод: Любительский (многоголосый) | GreenРай Studio
Субтитры: Отсутствуют

Режиссер: Диего Лерман

rating

В ролях: Валентина Гарсиа Герерро, Карлос Веббер, София Паломино, Сандра Виллани, Паула Итуриса, Себастьян Молинаро, Марта Лубос, Хульета Диас, Сильвия Бэйл

Описание: Когда семилетний Матиас возвращается домой, он находит свою мать Лауру без сознания на полу. Придя в себя, она решает уйти от мужа и вместе с сыном находит прибежище в Центре для женщин, подвергавшихся насилию. Там они проводят 24 часа, но Лаура решает начать жизнь заново в другом месте. Глазами Матиаса мы увидим их бегство из города, в котором всё до этого времени знакомое, теперь кажется опасным и чужим. К счастью, Лаура находит место, безопасное для воспитания сына......

Качество: WEBRip
Формат: AVI
Видео кодек: XviD
Аудио кодек: AC3
Видео: XviD, 720x304 , 23.9fps, 1897 Kbps
Аудио#1: AC3 , 2 ch , 48 kHz , 192 kbps
скриншот   скриншот   скриншот   скриншот  

Общее
Полное имя : D:Refugiado.2014.P.WEBRip.avi
Формат : AVI
Формат/Информация : Audio Video Interleave
Профиль формата : OpenDML
Размер файла : 1,32 Гбайт
Продолжительность : 1 ч. 30 м.
Общий поток : 2102 Кбит/сек
Программа кодирования : Lavf58.12.100

Видео
Идентификатор : 0
Формат : MPEG-4 Visual
Профиль формата : Advanced Simple@L5
Параметр BVOP формата : 2
Параметр QPel формата : Нет
Параметр GMC формата : Без точки перехода
Параметр матрицы формата : Default (MPEG)
Идентификатор кодека : XVID
Идентификатор кодека/Подсказка : XviD
Продолжительность : 1 ч. 30 м.
Битрейт : 1897 Кбит/сек
Ширина : 720 пикселей
Высота : 304 пикселя
Соотношение сторон : 2,35:1
Частота кадров : 23,976 кадра/сек
Цветовое пространство : YUV
Субдискретизация насыщенности : 4:2:0
Битовая глубина : 8 бит
Тип развёртки : Прогрессивная
Метод сжатия : С потерями
Бит/(Пиксели*Кадры) : 0.362
Размер потока : 1,19 Гбайт (90%)
Библиотека кодирования : XviD 1.2.1 (UTC 2008-12-04)

Аудио
Идентификатор : 1
Формат : AC-3
Формат/Информация : Audio Coding 3
Расширение режима : CM (complete main)
Параметр Endianness формата : Big
Идентификатор кодека : 2000
Продолжительность : 1 ч. 30 м.
Вид битрейта : Постоянный
Битрейт : 192 Кбит/сек
Каналы : 2 канала
Расположение каналов : Front: L R
Частота : 48,0 КГц
Битовая глубина : 16 бит
Метод сжатия : С потерями
Размер потока : 124 Мбайт (9%)
Выравнивание : Соединение по промежуткам
Продолжительность промежутка : 32 мс. (0,77 видеокадр)

pb.wtf



Скачать Беженец через торрент http://pic1.kartinco.top/images/11/h77vd.jpg Скачать фильм Беженец через торрент бесплантно в хорошем качестве Описание: Когда семилетний Матиас возвращается домой, он находит свою мать Лауру без сознания на полу. Придя в себя, она решает уйти от ... 7 10 3
Торрент: Зарегистрирован [2018-08-07 14:15] · скачан: 2 раз
Статус: T временная
Размер: 1.32 GB
Как cкачать? Как скачать Беженец через торрент | qTorrent

28-11-2019 20:33  

Отключить всю рекламу на сайте

    Дорогой пользователь! Огромная просьба, поблагодарите релизера, оцените раздачу и оставьте свои комментарий, если Вы скачали Беженец через торрент бесплатно! Внесите свою лепту в развитие PiratBit!
    Комментировать посты могут только пользователи прошедшие не сложную регистрацию
    Показать сообщения:    

    Беженец через торрент
    Скачать бесплатно Беженец
    Беженец скачать торрент
    Беженец смотреть онлайн
    Cкачать фильм Беженец бесплатно
    Беженец скачать торрент в хорошем качестве
    Беженец смотреть онлайн бесплатно в хорошем качестве


    Вы не можете начинать темы
    Вы не можете отвечать на сообщения
    Вы не можете редактировать свои сообщения
    Вы не можете удалять свои сообщения
    Вы не можете голосовать в опросах
    Вы не можете прикреплять файлы к сообщениям
    Вы можете скачивать файлы