Ссылка на приватное зеркало нашего сайта всего за 1$. Внимание количество ограничено!!!

2 сезон

iTunes

1 сезон

1

2 сезон

2 сезон

iTunes

1 сезон

RePack

30

Ultimate

ВАЖНО

ИГРА 18+

pack

RePack

MK11
pack

Забери бонус

RePack

jed

!!Акция!!

Alien_Rage

RePack

fifa19

RePack

Assassins Creed: Odyssey

RePack

NEED FOR SPEED™ PAYBACK

4 сезон

9 сезон

Бесстыжие 9 сезон

Все сериалы

все сериалы на PB.wtf

RePack

FAR CRY 5
  

Ху из Америка? / Who Is America? / Сезон: 1 / Серии: 1-7 из 7 (Саша Барон Коэн, Дэниэл Грэй Лонгино, Нэйтан Филдер) [2018, комедия, сатира, WEBRip 720p] [MVO] (Ozz) pb.wtf

Ху из Америка? через торрент pb.wtf

Раздают: 2 [ 0 KB/s ]
Размер: 4.21 GB | Добавлен: 6 мес. назад | Торрент скачан:45 раз
Скачать  

07-08-2018 19:42 Ху из Америка? Скачать торрент  

Ху из Америка? / Who Is America? Год выхода: 2018
Страна: США
Жанр: комедия, сатира
Продолжительность: ~30 мин
Перевод: Профессиональный (многоголосый закадровый)

Режиссер: Саша Барон Коэн, Дэниэл Грэй Лонгино, Нэйтан Филдер

В ролях: Саша Барон Коэн, Эмануэла Постаккини, Дик Чейни, Christy Cones, Matt Gaetz, Тед Коппел, Трент Лотт, Corinne Olympios, Ларри Прэтт, Dana Rohrabacher и др.

Описание: Псевдодокументальный сатирический сериал Саши Барона Коэна. От лица различных персонажей британский комик беседует с политиками, активистами и прочими столпами американского общества - от печально известных до никому не известных, испытывая на прочность их толерантность и здравый смысл.

rating

Роли озвучивают: Алексей Серёгин, Иван Кузнецов и Маргарита Корш|
Автор перевода: |Ольга Гатилина|
Подготовлено: Ozz

Качество: WEBRip 720p
Формат: mkv
Видео кодек: x264
Аудио кодек: AC3
Видео: 1280x720 at 23,976 fps, AVC, ~3000 kbps avg, 0.098 b/pixel
Аудио #1: Russian 48.0 KHz, AC3 , 2 channels, 192 Kbps |Ozz|
Аудио #2: English 48.0 KHz, AC3 , 6 channels, 3840 Kbps |Original|
Субтитры: Russian (Forced) - на надписи, Russian, English - (srt)

Присутствует ненормативная лексика!
Общее
Уникальный идентификатор                 : 189440288273868053360399586759053607356 (0x8E84DF54B05852779189AAD6161701BC)
Полное имя                               : D:\Who.Is.America.S01.720p.WEBRip.Rus.Eng.Ozz\Who.Is.America.S01E01.720p.WEBRip.Rus.Eng.Ozz.mkv
Формат                                   : Matroska
Версия формата                           : Version 4 / Version 2
Размер файла                             : 611 Мбайт
Продолжительность                        : 28 м. 23 с.
Общий поток                              : 3011 Кбит/сек
Дата кодирования                         : UTC 2018-08-07 08:43:31
Программа кодирования                    : mkvmerge v8.3.0 ('Over the Horizon') 64bit
Библиотека кодирования                   : libebml v1.3.1 + libmatroska v1.4.2

Видео
Идентификатор                            : 1
Формат                                   : AVC
Формат/Информация                        : Advanced Video Codec
Профиль формата                          : High@L3.1
Настройки формата                        : CABAC / 5 Ref Frames
Параметр CABAC формата                   : Да
Параметр RefFrames формата               : 5 кадров
Идентификатор кодека                     : V_MPEG4/ISO/AVC
Продолжительность                        : 28 м. 23 с.
Битрейт                                  : 2176 Кбит/сек
Ширина                                   : 1280 пикселей
Высота                                   : 720 пикселей
Соотношение сторон                       : 16:9
Режим частоты кадров                     : Постоянный
Частота кадров                           : 23,976 (24000/1001) кадра/сек
Цветовое пространство                    : YUV
Субдискретизация насыщенности            : 4:2:0
Битовая глубина                          : 8 бит
Тип развёртки                            : Прогрессивная
Бит/(Пиксели*Кадры)                      : 0.098
Размер потока                            : 442 Мбайт (72%)
Язык                                     : English
Default                                  : Да
Forced                                   : Нет
Цветовой диапазон                        : Limited
Основные цвета                           : BT.709
Характеристики трансфера                 : BT.709
Коэффициенты матрицы                     : BT.709

Аудио #1
Идентификатор                            : 2
Формат                                   : AC-3
Формат/Информация                        : Audio Coding 3
Идентификатор кодека                     : A_AC3
Продолжительность                        : 28 м. 23 с.
Вид битрейта                             : Постоянный
Битрейт                                  : 192 Кбит/сек
Каналы                                   : 2 канала
Расположение каналов                     : Front: L R
Частота                                  : 48,0 КГц
Частота кадров                           : 31,250 кадров/сек (1536 SPF)
Битовая глубина                          : 16 бит
Метод сжатия                             : С потерями
Размер потока                            : 39,0 Мбайт (6%)
Заголовок                                : MVO Ozz-tv
Язык                                     : Russian
ServiceKind/String                       : Complete Main
Default                                  : Да
Forced                                   : Нет

Аудио #2
Идентификатор                            : 3
Формат                                   : E-AC-3
Формат/Информация                        : Enhanced Audio Coding 3
Идентификатор кодека                     : A_EAC3
Продолжительность                        : 28 м. 23 с.
Вид битрейта                             : Постоянный
Битрейт                                  : 640 Кбит/сек
Каналы                                   : 6 каналов
Расположение каналов                     : Front: L C R, Side: L R, LFE
Частота                                  : 48,0 КГц
Частота кадров                           : 187,500 кадров/сек (256 SPF)
Метод сжатия                             : С потерями
Задержка видео                           : 12 мс.
Размер потока                            : 130 Мбайт (21%)
Язык                                     : English
ServiceKind/String                       : Complete Main
Default                                  : Нет
Forced                                   : Нет

Текст #1
Идентификатор                            : 4
Формат                                   : UTF-8
Идентификатор кодека                     : S_TEXT/UTF8
Идентификатор кодека/Информация          : UTF-8 Plain Text
Продолжительность                        : 24 м. 44 с.
Битрейт                                  : 5 бит/сек
ElementCount                             : 12
Размер потока                            : 1,01 Кбайт (0%)
Заголовок                                : Force
Язык                                     : Russian
Default                                  : Да
Forced                                   : Нет

Текст #2
Идентификатор                            : 5
Формат                                   : UTF-8
Идентификатор кодека                     : S_TEXT/UTF8
Идентификатор кодека/Информация          : UTF-8 Plain Text
Продолжительность                        : 28 м. 4 с.
Битрейт                                  : 158 бит/сек
ElementCount                             : 563
Размер потока                            : 32,6 Кбайт (0%)
Заголовок                                : Ольга Гатилина
Язык                                     : Russian
Default                                  : Нет
Forced                                   : Нет

Текст #3
Идентификатор                            : 6
Формат                                   : UTF-8
Идентификатор кодека                     : S_TEXT/UTF8
Идентификатор кодека/Информация          : UTF-8 Plain Text
Продолжительность                        : 28 м. 9 с.
Битрейт                                  : 105 бит/сек
ElementCount                             : 637
Размер потока                            : 21,7 Кбайт (0%)
Заголовок                                : SDH
Язык                                     : English
Default                                  : Нет
Forced                                   : Нет
скриншот  скриншот  скриншот  
Внимание! Раздача ведётся путём добавления новых серий; при каждом добавлении создаётся новый торрент. Чтобы начать докачку новой серии, пользователям необходимо сделать следующее:
(1) остановить скачивание,
(2) удалить старый торрент у себя из клиента (старые серии удалять не надо),
(3) скачать новый торрент и запустить его у себя в клиенте вместо старого, при этом указать клиенту путь в старую папку куда и должно происходить скачивание новых серий.

Ваш клиент при этом должен произвести хеширование (проверку) старой папки (если не производит сам - помогите ему сделать это), и будет докачивать только те серии которых у вас ещё нет. Старые серии при этом не удаляются, а продолжают раздаваться!

Eсли вы уже удалили старые серии, то предотвратить повторную закачку старых серий можно, отжав галочку в соответствующих местах при запуске нового торрента. По возможности, желательно не удалять старые серии как можно дольше чтобы релизёр не столько продолжал раздавать старые серии, а смог сконцентрироваться на новых.
pb.wtf



Скачать Ху из Америка? через торрент http://i4.imageban.ru/out/2018/08/07/a2ae7a117d3cdf9d50e7a888046b78ec.png Скачать фильм Ху из Америка? через торрент бесплантно в хорошем качестве Описание: Псевдодокументальный сатирический сериал Саши Барона Коэна. От лица различных персонажей британский комик беседует с политиками, ... 8.6 10 13
Торрент: Зарегистрирован [2020-05-26 08:31] · скачан: 45 раз
Статус: √ проверено
Размер: 4.21 GB
Как cкачать? Как скачать Ху из Америка? через торрент | qTorrent



Последний раз редактировалось: killermax2013 (2020-05-26 08:31), всего редактировалось 1 раз

28-11-2019 20:33  

Отключить всю рекламу на сайте

03-11-2018 22:13 Ху из Америка? Скачать торрент  

Знатный сериал, Саше Коэну чистый лайк!pb.wtf



04-11-2018 16:32 Ху из Америка? Скачать торрент  

Как ни странно, собеседники во всех его интервью реальные люди, политики, общественные деятели. Гугл в помощь. :)pb.wtf



    Дорогой пользователь! Огромная просьба, поблагодарите релизера, оцените раздачу и оставьте свои комментарий, если Вы скачали Ху из Америка? через торрент бесплатно! Внесите свою лепту в развитие PiratBit!
    Комментировать посты могут только пользователи прошедшие не сложную регистрацию
    Показать сообщения:    

    Ху из Америка? через торрент
    Скачать бесплатно Ху из Америка?
    Ху из Америка? скачать торрент
    Ху из Америка? смотреть онлайн
    Cкачать фильм Ху из Америка? бесплатно
    Ху из Америка? скачать торрент в хорошем качестве
    Ху из Америка? смотреть онлайн бесплатно в хорошем качестве


    Вы не можете начинать темы
    Вы не можете отвечать на сообщения
    Вы не можете редактировать свои сообщения
    Вы не можете удалять свои сообщения
    Вы не можете голосовать в опросах
    Вы не можете прикреплять файлы к сообщениям
    Вы можете скачивать файлы