Ссылка на приватное зеркало всего за 1$. Внимание количество ограничено!!!

OK

1+1

iTunes

мы

OK

1

WEB-DLRip

Джокер

Пифагор

Ведьмак / The Witcher сериал

iTunes

ПШазам

ОК

Оно 2

iTunes

30
pack

Вам бонус

ВАЖНО

!!Акция!!

Alien_RageХит недели

RePack

Resident Evil 21

ИГРА 18+

pack

RePack

jed

RePack

fifa19

RePack

Assassins Creed: Odyssey

RePack

NEED FOR SPEED™ PAYBACK

4 сезон

9 сезон

Бесстыжие 9 сезон

Все сериалы

все сериалы на PB.wtf

RePack

FAR CRY 5
  

Убийства на улице Дэль Плайя / Del Playa (Шон Харт) [2017 г., Ужасы, триллер, WEB-DLRip, Любительский (многоголосый) ["Синема УС"]] pb.wtf

Убийства на улице Дэль Плайя через торрент pb.wtf

Размер: 1.37 GB | Добавлен: 1 год 5 мес. назад | Торрент скачан:56 раз
Скачать  

07-08-2018 21:13 Убийства на улице Дэль Плайя Скачать торрент  

Убийства на улице Дэль Плайя / Del Playa

Год выпуска: 2017
Страна: USA
Жанр: Ужасы, триллер
Продолжительность: 01:45:28
Перевод: Любительский (многоголосый) ["Синема УС"]
Субтитры: отсутствуют
Выпущено: США, Belligerent Seal Productions, Berger Bros. Entertainment

Реклама: Присутствует (Казино)
Режиссер: Шон Харт

В ролях: Девон Барнс, Райан Очоа, Бретт Джонсон, Никки Ли, Эндрю Диц, Эмма Андерсон, Томик Мансури, Алан Уилер, Челси Тёрнбо, Филип Марлатт

Описание: В центре сюжета отношения между Мэтью и Клэр. Но нет, они не влюбленная парочка, все иначе. Мэтью - убийца, а Клэр - жертва. Все началось со старшей школы, когда Мэтью был обычным подростком, влюбившимся в Клэр. Из-за издевательств в школе и дома, парень превратился в животное, которое спустя время проявило свои черты характера. Кто знает: что бы случилось, если бы Клэр не отказала Мэтью в тот вечер? Рождаемся ли мы убийцами или ими становимся? На этот вопрос и пытается ответить Клэр всю свою жизнь


rating

Качество: WEB-DLRip
Формат: AVI
Видео кодек: XviD
Аудио кодек: AC3
Видео: (XviD)MPEG4 Visual : 720х304,v 23,976 fps 1654 kbps
Аудио#1: АC-3 48.0 kHz, 2 ch ~192 kbps

Общее
Полное имя : Del.Playa.2017.P.WEB-DLRip.14OOMB_KOSHARA.avi
Формат : AVI
Формат/Информация : Audio Video Interleave
Размер файла : 1,37 Гбайт
Продолжительность : 1 ч. 45 м.
Общий поток : 1855 Кбит/сек
Программа кодирования : VirtualDubMod 1.5.10.2 (build 2540/release)
Библиотека кодирования : VirtualDubMod build 2540/release

Видео
Идентификатор : 0
Формат : MPEG-4 Visual
Профиль формата : Advanced Simple@L5
Настройки формата : BVOP2 / Custom Matrix
Параметр BVOP формата : 2
Параметр QPel формата : Нет
Параметр GMC формата : Без точки перехода
Параметр матрицы формата : Выборочная
Идентификатор кодека : XVID
Идентификатор кодека/Подсказка : XviD
Продолжительность : 1 ч. 45 м.
Битрейт : 1654 Кбит/сек
Ширина : 720 пикселей
Высота : 304 пикселя
Соотношение сторон : 2,35:1
Частота кадров : 23,976 (24000/1001) кадра/сек
Цветовое пространство : YUV
Субдискретизация насыщенности : 4:2:0
Битовая глубина : 8 бит
Тип развёртки : Прогрессивная
Метод сжатия : С потерями
Бит/(Пиксели*Кадры) : 0.315
Размер потока : 1,22 Гбайт (89%)
Библиотека кодирования : XviD 1.2.1 (UTC 2008-12-04)

Аудио
Идентификатор : 1
Формат : AC-3
Формат/Информация : Audio Coding 3
Идентификатор кодека : 2000
Продолжительность : 1 ч. 45 м.
Вид битрейта : Постоянный
Битрейт : 192 Кбит/сек
Каналы : 2 канала
Расположение каналов : Front: L R
Частота : 48,0 КГц
Частота кадров : 31,250 кадров/сек (1536 SPF)
Битовая глубина : 16 бит
Метод сжатия : С потерями
Размер потока : 145 Мбайт (10%)
Выравнивание : Разделение по промежуткам
Продолжительность промежутка : 42 мс. (1,00 видеокадр)
Время предзагрузки промежутка : 500 мс.
ServiceKind/String : Complete Main
pb.wtf



Скачать Убийства на улице Дэль Плайя через торрент https://b.radikal.ru/b33/1808/ae/a449e24a969f.jpg Скачать фильм Убийства на улице Дэль Плайя через торрент бесплантно в хорошем качестве Описание: В центре сюжета отношения между Мэтью и Клэр. Но нет, они не влюбленная парочка, все иначе. Мэтью - убийца, а Клэр - жертва. Все ... 6 10 4
Торрент: Зарегистрирован [2018-08-07 21:13] · скачан: 56 раз
Статус: T временная
Размер: 1.37 GB
Как cкачать? Как скачать Убийства на улице Дэль Плайя через торрент | qTorrent



Последний раз редактировалось: DJASFUL (2018-08-08 10:06), всего редактировалось 3 раз(а)

28-11-2019 20:33  

Отключить всю рекламу на сайте

07-08-2018 21:19 Убийства на улице Дэль Плайя Скачать торрент  

Профессиональный это любительский pb.wtf



08-08-2018 05:41 Убийства на улице Дэль Плайя Скачать торрент  

    Дорогой пользователь! Огромная просьба, поблагодарите релизера, оцените раздачу и оставьте свои комментарий, если Вы скачали Убийства на улице Дэль Плайя через торрент бесплатно! Внесите свою лепту в развитие PiratBit!
    Комментировать посты могут только пользователи прошедшие не сложную регистрацию
    Показать сообщения:    

    Убийства на улице Дэль Плайя через торрент
    Скачать бесплатно Убийства на улице Дэль Плайя
    Убийства на улице Дэль Плайя скачать торрент
    Убийства на улице Дэль Плайя смотреть онлайн
    Cкачать фильм Убийства на улице Дэль Плайя бесплатно
    Убийства на улице Дэль Плайя скачать торрент в хорошем качестве
    Убийства на улице Дэль Плайя смотреть онлайн бесплатно в хорошем качестве


    Вы не можете начинать темы
    Вы не можете отвечать на сообщения
    Вы не можете редактировать свои сообщения
    Вы не можете удалять свои сообщения
    Вы не можете голосовать в опросах
    Вы не можете прикреплять файлы к сообщениям
    Вы можете скачивать файлы