>

5.6

iTunes

6.1

MVO

5.7

MVO

1

7.4

1 сезон

6.8

iTunes

7.2

1 сезон

13

6.7

1 сезон

8.3

RePack

30

Deluxe

pack

9.9

Лицензия

ВАЖНО

ИГРА 18+

pack

7.3

RePack

MK11

7.7

RePack

jed

7.8

RePack

fifa19

8.5

RePack

RDR2

RePack

NEED FOR SPEED™ PAYBACK

4 сезон

9 сезон

Бесстыжие 9 сезон

Все сериалы

все сериалы на PB.wtf

RePack

FAR CRY 5

Anonymous, доброе утро, мы катастрофически не успеваем собрать деньги на оплату серверов, помогите нам пожалуйста 5,10,15р., для нас важна любая помощь . В качестве благодарности мы отключим Вам всю рекламу на сайте (укажите свой ник в строку Ваше имя)!

×
  
Magnet ссылка

Счастливчик / Везунчик / Stan Lee's Lucky Man / Сезон: 1 / Серии: 1-10 из 10 (Джон Ист, Брайан Келли) [2016, Детектив, фантастика, боевик, HDTVRip 720p] MVO [Jaskier] pb.wtf

Счастливчик через торрент pb.wtf

Размер: 9.8 GB | Добавлен: 3 года 1 мес. назад | Торрент скачан:62 раза
Смотреть онлайн Счастливчик | Скачать    Ребята, помогите собрать деньги на оплату серверов!!!

08-08-2018 04:27 Счастливчик Скачать торрент  

Счастливчик / Везунчик / Stan Lee's Lucky Man Оригинальное название: Stan Lee's Lucky Man
Русское название: Везунчик
Год выпуска: 2016
Страна: Великобритания
Жанр: Детектив, фантастика, боевик
Продолжительность: ~00:45:00
Перевод: Профессиональный (многоголосый закадровый) Студия Jaskier
Субтитры: Нет

Режиссёр: Джон Ист, Брайан Келлийл

rating

В ролях:

Джеймс Несбитт, Стефен Хэйгэн, Джозеф Гатт, Лиза Диллон, Ли Николас Харрис, Мэтт Таунсенд, Эндрю Ли Поттс, Пол Блэкуэлл, Гарри Марриотт, Лаура Свифт, Сиенна Гиллори и другие

Описание:

В современном обществе тема полицейских расследований очень популярна. Обычно нам представляют полицейских – суперменов, способных свернуть горы, разгадать любую загадку. А как насчет полицейского неудачника? Часто ли вы встречали такое в кино? Главный персонаж телесериала «Везунчик», расскажет о полицейском неудачнике. Гарри работает в одном из полицейских участках Лондона. И вот в один обычный день произошла довольно не обычная встреча. На его пути возникла незнакомка и сделала ему довольно необычный подарок. Теперь он обладатель древнего браслета, который способен творить чудеса. Он привлекает удачу. Повезло или нет нашему герою, ведь за все в этой жизни надо платить…

Качество: HDTVRip 720p
Формат: MKV
Видео кодек: h.264
Аудио кодек: AC3

Видео: AVC, 1280x720 (16:9), 25fps, ~2900kbps ~0.127 bit/pixel
Аудио 1: Dolby AC3 48000Hz stereo 192 Kbps Русский
Аудио 2: Dolby AC3 48000Hz 6ch 384 Kbps Оригинал (Английский)
General
Unique ID                   : 203619640621123178305434901188139612150 (0x992FB76056A806F48AF22A5BEBD8F7F6)
Complete name               : Z:\HD\Stan Lee's Lucky Man. Season 1 (HDTVRip l 720p l Jaskier)\stan.lees.lucky.man.s01e03.720p.hdtv.x264-jaskier.mkv
Format                      : Matroska
Format version              : Version 1
File size                   : 1.11 GiB
Duration                    : 44mn 34s
Overall bit rate            : 3 569 Kbps
Encoded date                : UTC 2016-02-07 18:34:28
Writing application         : mkvmerge v2.3.0 ('Freak U') built on Sep  8 2008 18:32:16
Writing library             : libebml v0.7.7 + libmatroska v0.8.1

Video
ID                          : 1
Format                      : AVC
Format/Info                 : Advanced Video Codec
Format profile              : High@L4.1
Format settings, CABAC      : Yes
Format settings, ReFrames   : 5 frames
Codec ID                    : V_MPEG4/ISO/AVC
Duration                    : 44mn 34s
Bit rate                    : 2 922 Kbps
Width                       : 1 280 pixels
Height                      : 720 pixels
Display aspect ratio        : 16:9
Frame rate mode             : Constant
Frame rate                  : 25.000 fps
Color space                 : YUV
Chroma subsampling          : 4:2:0
Bit depth                   : 8 bits
Scan type                   : Progressive
Bits/(Pixel*Frame)          : 0.127
Stream size                 : 932 MiB (82%)
Writing library             : x264 core 148 r2665 a01e339
Encoding settings           : cabac=1 / ref=5 / deblock=1:0:0 / analyse=0x3:0x113 / me=umh / subme=8 / psy=1 / psy_rd=1.00:0.00 / mixed_ref=1 / me_range=16 / chroma_me=1 / trellis=1 / 8x8dct=1 / cqm=0 / deadzone=21,11 / fast_pskip=1 / chroma_qp_offset=-2 / threads=12 / lookahead_threads=2 / sliced_threads=0 / nr=0 / decimate=1 / interlaced=0 / bluray_compat=0 / constrained_intra=0 / bframes=3 / b_pyramid=2 / b_adapt=2 / b_bias=0 / direct=3 / weightb=1 / open_gop=0 / weightp=2 / keyint=250 / keyint_min=25 / scenecut=40 / intra_refresh=0 / rc_lookahead=50 / rc=crf / mbtree=1 / crf=18.0 / qcomp=0.60 / qpmin=0 / qpmax=69 / qpstep=4 / ip_ratio=1.40 / aq=1:1.00
Language                    : English
Default                     : Yes
Forced                      : No
Color range                 : Limited
Matrix coefficients         : BT.709

Audio #1
ID                          : 2
Format                      : AC-3
Format/Info                 : Audio Coding 3
Mode extension              : CM (complete main)
Format settings, Endianness : Big
Codec ID                    : A_AC3
Duration                    : 44mn 34s
Bit rate mode               : Constant
Bit rate                    : 192 Kbps
Channel(s)                  : 2 channels
Channel positions           : Front: L R
Sampling rate               : 48.0 KHz
Compression mode            : Lossy
Stream size                 : 61.2 MiB (5%)
Language                    : Russian
Default                     : Yes
Forced                      : No

Audio #2
ID                          : 3
Format                      : AC-3
Format/Info                 : Audio Coding 3
Mode extension              : CM (complete main)
Format settings, Endianness : Big
Codec ID                    : A_AC3
Duration                    : 44mn 34s
Bit rate mode               : Constant
Bit rate                    : 384 Kbps
Channel(s)                  : 6 channels
Channel positions           : Front: L C R, Side: L R, LFE
Sampling rate               : 48.0 KHz
Compression mode            : Lossy
Stream size                 : 122 MiB (11%)
Language                    : English
Default                     : No
Forced                      : No
скриншот  скриншот  скриншот  
Внимание! Раздача ведётся путём добавления новых серий; при каждом добавлении создётся новый торрент. Чтобы начать докачку новой серии, пользователям необходимо сделать следующее:

Остановить скачивание.
Удалить старый торрент у себя из клиента (старые серии удалять не надо).
Скачать новый торрент и запустить его у себя в клиенте вместо старого, при этом указать клиенту путь в старую папку куда и должно происходить скачивание новых серий.

Ваш клиент при этом должен произвести хеширование (проверку) старой папки (если не производит сам - помогите ему сделать это), и будет докачивать только те серии которых у вас ещё нет. Старые серии при этом не удаляются, а продолжают раздаваться!
Eсли вы уже удалили старые серии, то предотвратить повторную закачку старых серий можно, отжав галочку в соответсвующих местах при запуске нового торрента. По возможности, желательно не удалять старые серии как можно дольше чтобы релизёр не столько продолжал раздавать старые серии, а смог сконцентрироваться на новых.
pb.wtf



Скачать Счастливчик через торрент http://i76.fastpic.ru/big/2016/0207/1f/9fd202c99ae8a4b6bedd1bcdcc74291f.png Скачать, смотреть онлайн Счастливчик бесплантно в хорошем качестве Описание: В современном обществе тема полицейских расследований очень популярна. Обычно нам представляют полицейских – суперменов, ... 8.3 10 4
Торрент: Зарегистрирован [2018-08-08 04:27] · скачан: 62 раз
Статус: √ проверено
Размер: 9.8 GB
Как cкачать? Как скачать Счастливчик через торрент | UTorrent

28-11-2019 20:33  

Отключить всю рекламу на сайте

    Дорогой пользователь! Огромная просьба, поблагодарите релизера, оцените раздачу и оставьте свои комментарий, если Вы скачали Счастливчик через торрент бесплатно!
    Комментировать посты могут только пользователи прошедшие не сложную регистрацию
    Показать сообщения:    

    Счастливчик через торрент
    Скачать бесплатно Счастливчик
    Счастливчик скачать торрент
    Счастливчик смотреть онлайн
    Cкачать фильм Счастливчик бесплатно
    Счастливчик скачать торрент в хорошем качестве
    Счастливчик смотреть онлайн бесплатно в хорошем качестве


    Вы не можете начинать темы
    Вы не можете отвечать на сообщения
    Вы не можете редактировать свои сообщения
    Вы не можете удалять свои сообщения
    Вы не можете голосовать в опросах
    Вы не можете прикреплять файлы к сообщениям
    Вы можете скачивать файлы