Ссылка на приватное зеркало всего за 1$. Внимание количество ограничено!!!

OK

1+1

iTunes

мы

OK

1

WEB-DLRip

Джокер

Пифагор

Ведьмак / The Witcher сериал

Лицензия

ПШазам

ОК

Оно 2

iTunes

30
pack

Вам бонус

ВАЖНО

!!Акция!!

Alien_RageХит недели

RePack

Resident Evil 21

ИГРА 18+

pack

RePack

jed

!!Акция!!

Alien_Rage

RePack

fifa19

RePack

Assassins Creed: Odyssey

RePack

NEED FOR SPEED™ PAYBACK

4 сезон

9 сезон

Бесстыжие 9 сезон

Все сериалы

все сериалы на PB.wtf

RePack

FAR CRY 5
  

Сотня / 100 / The 100 / Сезон: 5 / Серии: 1-13 из 13 (Дин Уайт, Джон Беринг, Милан Чейлов) [2018, Фантастика, HDTVRip] DVO [SunshineStudio] pb.wtf

Сотня через торрент pb.wtf

Раздают: 1 [ 0 KB/s ]
Размер: 6.67 GB | Добавлен: 1 год 5 мес. назад | Торрент скачан:35 раз
Скачать  

08-08-2018 08:34 Сотня Скачать торрент  

Сотня / 100 / The 100
Информация о фильме:

Название: Сотня / 100
Оригинальное название: The 100
Год выпуска: 2018
Страна: США
Жанр: Фантастика
Продолжительность: ~ 00:44:00
Перевод: Любительский двухголосый |
Субтитры: | отсутствуют |

Режиссер: Дин Уайт, Джон Беринг, Милан Чейлов

rating

В ролях:

Элиза Тейлор-Коттер, Мари Авгеропулос, Сачин Сахель, Линдси Морган, Женевьев Бюкнер, Ричард Хэрмон, Джарод Джозеф, Челси Рейст, Крис Браунинг, Джош Ссеттуба

Описание:

События в сериале начинают разворачиваться по прошествии девяносто семи лет после того как всю цивилизацию уничтожила страшная атомная война. Высоко в космосе на орбите Земли летает большой космический корабль, именно здесь находятся те, кто выжил после страшной катастрофы. Они единственные кто пережил этот ужасный катаклизм который устроило человечество. Именно с этого последнего пристанища людей на Землю отправляют космический челнок на котором находятся сто малолетних преступников…

Информация о файле:

Качество: HDTVRip
Формат: AVI

Видео: ~ 1550 kbps | 720x400 (16:9) | 23,976 fps
Аудио Rus: AC3 | 48.0 KHz | 2 ch | 192 kbps |
скриншот  скриншот  скриншот  скриншот  

Общее
Полное имя : D:\The.100.S05.400p.SunshineStudio\The.100.S05E01.400p.SunshineStudio.avi
Формат : AVI
Формат/Информация : Audio Video Interleave
Размер файла : 520 Мбайт
Продолжительность : 42 м. 46 с.
Общий поток : 1701 Кбит/сек
Программа кодирования : VirtualDubMod 1.5.10.3 | www.virtualdub-fr.org || (build 2550/release)
Библиотека кодирования : VirtualDubMod build 2550/release

Видео
Идентификатор : 0
Формат : MPEG-4 Visual
Профиль формата : Advanced Simple@L5
Параметр BVOP формата : 2
Параметр QPel формата : Нет
Параметр GMC формата : Без точки перехода
Параметр матрицы формата : Default (MPEG)
Идентификатор кодека : XVID
Идентификатор кодека/Подсказка : XviD
Продолжительность : 42 м. 46 с.
Битрейт : 1500 Кбит/сек
Ширина : 720 пикселей
Высота : 400 пикселей
Соотношение сторон : 16:9
Частота кадров : 23,976 (23976/1000) кадра/сек
Цветовое пространство : YUV
Субдискретизация насыщенности : 4:2:0
Битовая глубина : 8 бит
Тип развёртки : Прогрессивная
Метод сжатия : С потерями
Бит/(Пиксели*Кадры) : 0.217
Размер потока : 459 Мбайт (88%)
Библиотека кодирования : XviD 1.2.1 (UTC 2008-12-04)

Аудио
Идентификатор : 1
Формат : AC-3
Формат/Информация : Audio Coding 3
Расширение режима : CM (complete main)
Параметр Endianness формата : Big
Идентификатор кодека : 2000
Продолжительность : 42 м. 46 с.
Вид битрейта : Постоянный
Битрейт : 192 Кбит/сек
Каналы : 2 канала
Расположение каналов : Front: L R
Частота : 48,0 КГц
Частота кадров : 31,250 кадров/сек (1536 spf)
Метод сжатия : С потерями
Размер потока : 58,7 Мбайт (11%)
Выравнивание : Разделение по промежуткам
Продолжительность промежутка : 42 мс. (1,00 видеокадр)
Время предзагрузки промежутка : 500 мс.

pb.wtf



Скачать Сотня через торрент http://pic1.kartinco.top/images/11/o2arq.jpg Скачать фильм Сотня через торрент бесплантно в хорошем качестве Описание: События в сериале начинают разворачиваться по прошествии девяносто семи лет после того как всю цивилизацию уничтожила страшная ... 9.6 10 5
Торрент: Зарегистрирован [2018-08-08 08:34] · скачан: 35 раз
Статус: √ проверено
Размер: 6.67 GB
Как cкачать? Как скачать Сотня через торрент | qTorrent

% Раздел Тема Автор DL S | L
Зарубежные сериалы [ 17.18 GB ] Сотня / 100 / The 100 / Сезон: 5 / Серии: 1-13 из 13 [2018 HDTVRip 720p] DVO [SunshineStudio] bober100 Скачать
1 | 0
Зарубежные сериалы [ 6.35 GB ] Сотня / 100 / The 100 / Сезон: 5 / Серии: 1-13 из 13 [2018 WEBRip] MVO [BaibaKo] bober100 Скачать
2 | 0
Зарубежные сериалы [ 14.23 GB ] Сотня / 100 / The 100 / Сезон: 5 / Серии: 1-13 из 13 [2018 WEB-DL 720p] MVO [AlexFilm] bober100 Скачать
1 | 0
Зарубежные сериалы [ 12.22 GB ] Сотня / 100 / The 100 / Сезон: 5 / Серии: 1-13 из 13 [2018 WEB-DLRip] 2x[MVO] killermax2013 Скачать
1 | 0
Зарубежные сериалы [ 20.78 GB ] Сотня / 100 / The 100 / Сезон: 5 / Серии: 1-13 из 13 [2018 WEB-DL 720p] MVO [BaibaKo] bober100 Скачать
1 | 0
Зарубежные сериалы [ 24.8 GB ] Сотня / 100 / The 100 / Сезон: 5 / Серии: 1-13 из 13 [2018 WEBRip 1080p] MVO [BaibaKo] bober100 Скачать
1 | 0
Зарубежные сериалы [ 63.12 GB ] Сотня / 100 / The 100 / Сезон: 5 / Серии: 1-13 из 13 [2018 WEB-DL 1080p] 2xMVO [AlexFilm LostFilm] bober100 Скачать
1 | 0

28-11-2019 20:33  

Отключить всю рекламу на сайте

    Дорогой пользователь! Огромная просьба, поблагодарите релизера, оцените раздачу и оставьте свои комментарий, если Вы скачали Сотня через торрент бесплатно! Внесите свою лепту в развитие PiratBit!
    Комментировать посты могут только пользователи прошедшие не сложную регистрацию
    Показать сообщения:    

    Сотня через торрент
    Скачать бесплатно Сотня
    Сотня скачать торрент
    Сотня смотреть онлайн
    Cкачать фильм Сотня бесплатно
    Сотня скачать торрент в хорошем качестве
    Сотня смотреть онлайн бесплатно в хорошем качестве


    Вы не можете начинать темы
    Вы не можете отвечать на сообщения
    Вы не можете редактировать свои сообщения
    Вы не можете удалять свои сообщения
    Вы не можете голосовать в опросах
    Вы не можете прикреплять файлы к сообщениям
    Вы можете скачивать файлы