Ссылка на приватное зеркало всего за 1$. Внимание количество ограничено!!!

OK

1+1

iTunes

мы

OK

1

WEB-DLRip

Джокер

Пифагор

Ведьмак / The Witcher сериал

Лицензия

ПШазам

ОК

Оно 2

iTunes

30
pack

Вам бонус

ВАЖНО

!!Акция!!

Alien_RageХит недели

RePack

Resident Evil 21

ИГРА 18+

pack

RePack

jed

!!Акция!!

Alien_Rage

RePack

fifa19

RePack

Assassins Creed: Odyssey

RePack

NEED FOR SPEED™ PAYBACK

4 сезон

9 сезон

Бесстыжие 9 сезон

Все сериалы

все сериалы на PB.wtf

RePack

FAR CRY 5
  

Сотня / 100 / The 100 / Сезон: 5 / Серии: 1-13 из 13 (Дин Уайт, Джон Беринг, Милан Чейлов) [2018, Фантастика, HDTVRip 720p] DVO [SunshineStudio] pb.wtf

Сотня через торрент pb.wtf

Размер: 17.18 GB | Добавлен: 1 год 5 мес. назад | Торрент скачан:14 раз
Скачать  

08-08-2018 08:34 Сотня Скачать торрент  

Сотня / 100 / The 100
Информация о фильме:

Название: Сотня / 100
Оригинальное название: The 100
Год выпуска: 2018
Страна: США
Жанр: Фантастика
Продолжительность: ~ 00:44:00
Перевод: Любительский двухголосый |
Субтитры: | отсутствуют |

Режиссер: Дин Уайт, Джон Беринг, Милан Чейлов

rating

В ролях:

Элиза Тейлор-Коттер, Мари Авгеропулос, Сачин Сахель, Линдси Морган, Женевьев Бюкнер, Ричард Хэрмон, Джарод Джозеф, Челси Рейст, Крис Браунинг, Джош Ссеттуба

Описание:

События в сериале начинают разворачиваться по прошествии девяносто семи лет после того как всю цивилизацию уничтожила страшная атомная война. Высоко в космосе на орбите Земли летает большой космический корабль, именно здесь находятся те, кто выжил после страшной катастрофы. Они единственные кто пережил этот ужасный катаклизм который устроило человечество. Именно с этого последнего пристанища людей на Землю отправляют космический челнок на котором находятся сто малолетних преступников…

Информация о файле:

Качество: HDTVRip 720p
Формат: MKV

Видео: ~ 4000 kbps | 1280x720 (16:9) | 23,976 fps
Аудио Rus: AC3 | 48.0 KHz | 2 ch | 192 kbps |
скриншот  скриншот  скриншот  скриншот  

Общее
Уникальный идентификатор : 183762376751975281926105223781001768312 (0x8A3F58ADEC0B2A759246407848E0AD78)
Полное имя : D:\The.100.S05.720p.SunshineStudio\The.100.S05E01.720p.SunshineStudio.mkv
Формат : Matroska
Версия формата : Version 4 / Version 2
Размер файла : 1,22 Гбайт
Продолжительность : 42 м. 46 с.
Общий поток : 4087 Кбит/сек
Дата кодирования : UTC 2018-04-25 10:04:46
Программа кодирования : mkvmerge v8.3.0 ('Over the Horizon') 64bit
Библиотека кодирования : libebml v1.3.1 + libmatroska v1.4.2

Видео
Идентификатор : 1
Формат : AVC
Формат/Информация : Advanced Video Codec
Профиль формата : High@L3.1
Параметр CABAC формата : Да
Параметр RefFrames формата : 4 кадра
Идентификатор кодека : V_MPEG4/ISO/AVC
Продолжительность : 42 м. 46 с.
Битрейт : 3893 Кбит/сек
Ширина : 1280 пикселей
Высота : 720 пикселей
Соотношение сторон : 16:9
Режим частоты кадров : Постоянный
Частота кадров : 23,976 (23976/1000) кадра/сек
Цветовое пространство : YUV
Субдискретизация насыщенности : 4:2:0
Битовая глубина : 8 бит
Тип развёртки : Прогрессивная
Бит/(Пиксели*Кадры) : 0.176
Размер потока : 1,16 Гбайт (95%)
Библиотека кодирования : x264 core 146 r2538 121396c
Настройки программы : cabac=1 / ref=1 / deblock=1:0:0 / analyse=0x3:0x113 / me=hex / subme=2 / psy=1 / psy_rd=1.00:0.00 / mixed_ref=0 / me_range=16 / chroma_me=1 / trellis=0 / 8x8dct=1 / cqm=0 / deadzone=21,11 / fast_pskip=1 / chroma_qp_offset=0 / threads=6 / lookahead_threads=2 / sliced_threads=0 / nr=0 / decimate=1 / interlaced=0 / bluray_compat=0 / constrained_intra=0 / bframes=3 / b_pyramid=2 / b_adapt=1 / b_bias=0 / direct=1 / weightb=1 / open_gop=0 / weightp=1 / keyint=250 / keyint_min=23 / scenecut=40 / intra_refresh=0 / rc_lookahead=10 / rc=crf / mbtree=1 / crf=18.0 / qcomp=0.60 / qpmin=0 / qpmax=69 / qpstep=4 / ip_ratio=1.40 / aq=1:1.00
Default : Да
Forced : Нет

Аудио
Идентификатор : 2
Формат : AC-3
Формат/Информация : Audio Coding 3
Расширение режима : CM (complete main)
Параметр Endianness формата : Big
Идентификатор кодека : A_AC3
Продолжительность : 42 м. 46 с.
Вид битрейта : Постоянный
Битрейт : 192 Кбит/сек
Каналы : 2 канала
Расположение каналов : Front: L R
Частота : 48,0 КГц
Частота кадров : 31,250 кадров/сек (1536 spf)
Метод сжатия : С потерями
Размер потока : 58,7 Мбайт (5%)
Default : Да
Forced : Нет

pb.wtf



Скачать Сотня через торрент http://pic1.kartinco.top/images/11/o2arq.jpg Скачать фильм Сотня через торрент бесплантно в хорошем качестве Описание: События в сериале начинают разворачиваться по прошествии девяносто семи лет после того как всю цивилизацию уничтожила страшная ... 10 10 2
Торрент: Зарегистрирован [2018-08-08 08:34] · скачан: 14 раз
Статус: √ проверено
Размер: 17.18 GB
Как cкачать? Как скачать Сотня через торрент | qTorrent

% Раздел Тема Автор DL S | L
Зарубежные сериалы [ 6.67 GB ] Сотня / 100 / The 100 / Сезон: 5 / Серии: 1-13 из 13 [2018 HDTVRip] DVO [SunshineStudio] bober100 Скачать
2 | 0
Зарубежные сериалы [ 6.35 GB ] Сотня / 100 / The 100 / Сезон: 5 / Серии: 1-13 из 13 [2018 WEBRip] MVO [BaibaKo] bober100 Скачать
2 | 0
Зарубежные сериалы [ 14.23 GB ] Сотня / 100 / The 100 / Сезон: 5 / Серии: 1-13 из 13 [2018 WEB-DL 720p] MVO [AlexFilm] bober100 Скачать
1 | 0
Зарубежные сериалы [ 12.22 GB ] Сотня / 100 / The 100 / Сезон: 5 / Серии: 1-13 из 13 [2018 WEB-DLRip] 2x[MVO] killermax2013 Скачать
1 | 0
Зарубежные сериалы [ 20.78 GB ] Сотня / 100 / The 100 / Сезон: 5 / Серии: 1-13 из 13 [2018 WEB-DL 720p] MVO [BaibaKo] bober100 Скачать
1 | 0
Зарубежные сериалы [ 24.8 GB ] Сотня / 100 / The 100 / Сезон: 5 / Серии: 1-13 из 13 [2018 WEBRip 1080p] MVO [BaibaKo] bober100 Скачать
1 | 0
Зарубежные сериалы [ 63.12 GB ] Сотня / 100 / The 100 / Сезон: 5 / Серии: 1-13 из 13 [2018 WEB-DL 1080p] 2xMVO [AlexFilm LostFilm] bober100 Скачать
1 | 0

28-11-2019 20:33  

Отключить всю рекламу на сайте


    Дорогой пользователь! Огромная просьба, поблагодарите релизера, оцените раздачу и оставьте свои комментарий, если Вы скачали Сотня через торрент бесплатно! Внесите свою лепту в развитие PiratBit!
    Комментировать посты могут только пользователи прошедшие не сложную регистрацию
    Показать сообщения:    

    Сотня через торрент
    Скачать бесплатно Сотня
    Сотня скачать торрент
    Сотня смотреть онлайн
    Cкачать фильм Сотня бесплатно
    Сотня скачать торрент в хорошем качестве
    Сотня смотреть онлайн бесплатно в хорошем качестве


    Вы не можете начинать темы
    Вы не можете отвечать на сообщения
    Вы не можете редактировать свои сообщения
    Вы не можете удалять свои сообщения
    Вы не можете голосовать в опросах
    Вы не можете прикреплять файлы к сообщениям
    Вы можете скачивать файлы