Ссылка на приватное зеркало всего за 1$. Внимание количество ограничено!!!

OK

1+1

iTunes

мы

OK

1

WEB-DLRip

Джокер

Пифагор

Ведьмак / The Witcher сериал

Лицензия

ПШазам

ОК

Оно 2

iTunes

30
pack

Вам бонус

ВАЖНО

!!Акция!!

Alien_RageХит недели

RePack

Resident Evil 21

ИГРА 18+

pack

RePack

jed

!!Акция!!

Alien_Rage

RePack

fifa19

RePack

Assassins Creed: Odyssey

RePack

NEED FOR SPEED™ PAYBACK

4 сезон

9 сезон

Бесстыжие 9 сезон

Все сериалы

все сериалы на PB.wtf

RePack

FAR CRY 5
  

Смертельная ночь / Dead Night (Брэд Барух) [2017, ужасы, WEB-DL 720p] MVO ["Синема УС"] pb.wtf

Смертельная ночь через торрент pb.wtf

Размер: 2.81 GB | Добавлен: 1 год 5 мес. назад | Торрент скачан:50 раз
Скачать  

08-08-2018 09:40 Смертельная ночь Скачать торрент  

Смертельная ночь / Dead NightГод выпуска: 2017
Страна: США
Жанр: ужасы
Продолжительность: 01:32:54
Перевод: Любительский (многоголосый) | "Синема УС"
Субтитры: отсутствуют

Режиссер: Брэд Барух

rating

В ролях:

Элиз Вагнер Лутман, Джошуа Хоффман, Джеймс Бэртс, Микиэ Битти, Джозеф Бишара, Эй Джей Боуэн, Шона Кейс, Джаггер Чейз, Марси Коэн, Джина Компаретто

Описание:

Любящая мама теряет рассудок в череде событий, которые приводят к безумию и убийствам. История Кейси Поллак рассказывается с двух разных сторон - как одна ночь в лесу обернулась настоящим кошмаром.

Качество: WEB-DL 720p
Формат: MKV

Видео: h.264, 4331 kb/s, 1280x720
Аудио: Русский, (AC3, 2 ch, 384 Кбит/с)
скриншот  скриншот  скриншот  

Общее
Уникальный идентификатор : 219703515494546713889862413646617361905 (0xA5495BA1CFF0C1FEB954945B97F7BDF1)
Полное имя : D:\Dead.Night.2018.P.WEB-DL.72Op_KOSHARA.mkv
Формат : Matroska
Версия формата : Version 2
Размер файла : 2,81 Гбайт
Продолжительность : 1 ч. 26 м.
Режим общего битрейта : Переменный
Общий поток : 4663 Кбит/сек
Дата кодирования : UTC 2018-07-28 18:23:19
Программа кодирования : mkvmerge v8.3.0 ('Over the Horizon') 64bit
Библиотека кодирования : libebml v1.3.1 + libmatroska v1.4.2

Видео
Идентификатор : 1
Формат : AVC
Формат/Информация : Advanced Video Codec
Профиль формата : High@L4.1
Параметр CABAC формата : Да
Параметр RefFrames формата : 4 кадра
Идентификатор кодека : V_MPEG4/ISO/AVC
Продолжительность : 1 ч. 26 м.
Вид битрейта : Переменный
Битрейт : 4331 Кбит/сек
Максимальный битрейт : 5000 Кбит/сек
Ширина : 1280 пикселей
Высота : 720 пикселей
Соотношение сторон : 16:9
Режим частоты кадров : Постоянный
Частота кадров : 23,976 (24000/1001) кадра/сек
Стандарт вещания : Component
Цветовое пространство : YUV
Субдискретизация насыщенности : 4:2:0
Битовая глубина : 8 бит
Тип развёртки : Прогрессивная
Бит/(Пиксели*Кадры) : 0.189
Размер потока : 2,52 Гбайт (90%)
Default : Да
Forced : Нет
Цветовой диапазон : Limited
Основные цвета : BT.709
Характеристики трансфера : BT.709
Коэффициенты матрицы : BT.709

Аудио
Идентификатор : 2
Формат : AC-3
Формат/Информация : Audio Coding 3
Расширение режима : CM (complete main)
Параметр Endianness формата : Big
Идентификатор кодека : A_AC3
Продолжительность : 1 ч. 26 м.
Вид битрейта : Постоянный
Битрейт : 384 Кбит/сек
Каналы : 2 канала
Расположение каналов : Front: L R
Частота : 48,0 КГц
Частота кадров : 31,250 кадров/сек (1536 spf)
Метод сжатия : С потерями
Размер потока : 237 Мбайт (8%)
Default : Да
Forced : Нет

pb.wtf



Скачать Смертельная ночь через торрент http://img11.lostpic.net/2018/08/08/3babb84d0ba954153df92dff6773361d.jpg Скачать фильм Смертельная ночь через торрент бесплантно в хорошем качестве Описание: Любящая мама теряет рассудок в череде событий, которые приводят к безумию и убийствам. История Кейси Поллак рассказывается с двух ... 10 10 2
Торрент: Зарегистрирован [2018-08-08 09:40] · скачан: 50 раз
Статус: T временная
Размер: 2.81 GB
Как cкачать? Как скачать Смертельная ночь через торрент | qTorrent

% Раздел Тема Автор DL S | L
Фильмы (Blu-ray, BD-Remux, HDDVD) [ 20.45 GB ] Тихая ночь смертельная ночь 2 / Silent Night Deadly Night 2 [1987 BD Remux 1080р] 2xAVO bober100 Скачать
1 | 0
Фильмы (Blu-ray, BD-Remux, HDDVD) [ 17.58 GB ] Тихая ночь смертельная ночь / Silent Night Deadly Night [1984 BDRemux 1080р] AVO Леонид Ильич Скачать
1 | 0
T Фильмы (мультфильмы) cо спонсором показа (Новинки AVI/MKV) [ 1.37 GB ] Смертельная ночь / Dead Night [2017 WEB-DLRip] MVO ["Синема УС"] bober100 Скачать
1 | 0
Фильмы [HD 720p, 1080p] (Звук Cam, VO, DVO) [ 9.4 GB ] Тихая ночь смертельная ночь / Silent Night Deadly Night [1984 BDRip 1080p by msltel] AVO msltel Скачать
1 | 0
Фильмы [HD 720p, 1080p] (Звук Cam, VO, DVO) [ 3.6 GB ] Тихая ночь смертельная ночь / Silent Night Deadly Night [1984 BDRip 720p by msltel] AVO msltel Скачать
1 | 0

28-11-2019 20:33  

Отключить всю рекламу на сайте

    Дорогой пользователь! Огромная просьба, поблагодарите релизера, оцените раздачу и оставьте свои комментарий, если Вы скачали Смертельная ночь через торрент бесплатно! Внесите свою лепту в развитие PiratBit!
    Комментировать посты могут только пользователи прошедшие не сложную регистрацию
    Показать сообщения:    

    Смертельная ночь через торрент
    Скачать бесплатно Смертельная ночь
    Смертельная ночь скачать торрент
    Смертельная ночь смотреть онлайн
    Cкачать фильм Смертельная ночь бесплатно
    Смертельная ночь скачать торрент в хорошем качестве
    Смертельная ночь смотреть онлайн бесплатно в хорошем качестве


    Вы не можете начинать темы
    Вы не можете отвечать на сообщения
    Вы не можете редактировать свои сообщения
    Вы не можете удалять свои сообщения
    Вы не можете голосовать в опросах
    Вы не можете прикреплять файлы к сообщениям
    Вы можете скачивать файлы