Ссылка на приватное зеркало всего за 1$. Внимание количество ограничено!!!

OK

1+1

iTunes

мы

OK

1

WEB-DLRip

Джокер

Пифагор

Ведьмак / The Witcher сериал

Лицензия

ПШазам

ОК

Оно 2

iTunes

30
pack

Вам бонус

ВАЖНО

!!Акция!!

Alien_RageХит недели

RePack

Resident Evil 21

ИГРА 18+

pack

RePack

jed

!!Акция!!

Alien_Rage

RePack

fifa19

RePack

Assassins Creed: Odyssey

RePack

NEED FOR SPEED™ PAYBACK

4 сезон

9 сезон

Бесстыжие 9 сезон

Все сериалы

все сериалы на PB.wtf

RePack

FAR CRY 5
  

Тонкая красная линия / The Thin Red Line (Терренс Малик) [1998 г., Боевик, Драма, Военный, BDRip 1080p, HEVC 10bit, Дубляж] pb.wtf

Тонкая красная линия через торрент pb.wtf

Раздают: 2 [ 0 KB/s ]
Размер: 4.7 GB | Добавлен: 1 мес. 4 д. назад | Торрент скачан:73 раза
Скачать  

08-08-2018 12:15 Тонкая красная линия Скачать торрент  

Тонкая красная линия / The Thin Red Line
Год выпуска: 1998
Страна: США
Жанр: Боевик, Драма, Военный
Продолжительность: 02:50:47
Перевод: Дубляж
Субтитры: Нет

Режиссер: Терренс Малик



В ролях: Кирк Асеведо, Шон Пенн, Пенелопа Аллен, Эдриан Броуди, Джеймс Кэвизел, Бенжамин Грин, Саймон Биллиг, Бен Чаплин, Марк Бун Джуниор,Джордж Клуни, Джон Кьюсак, Вуди Харрельсон, Ник Нолти, Джон Си Райли, Джон Траволта

Описание: Фильм рассказывает о нескольких месяцах жизни армейского подразделения, в том числе об участии этого подразделения в одной из решающих и сложных операций XX-го века - битве за Гвадалканал. Американские пехотинцы посланы на подмогу морским подразделениям, измотанным схваткой с японцами.

Качество: BDRip 1080p
Формат: MKV
Видео кодек: H.265
Аудио кодек: DTS
Видео: HEVC/H.265, 1920x818, 3168 Kbps
Аудио#1: DTS 6 ch, 768 kbps - Русский, Дублированный
Релиз от: ADVOKAT69
скриншот  ,скриншот  ,скриншот  ,скриншот  ,

Общее
Уникальный идентификатор : 176665827867413015979697530408494496971 (0x84E899CE4A2A7207AC9C55305E24FCCB)
Полное имя : H:\Тонкая красная линия (1998) НEVC 10bit.mkv
Формат : Matroska
Версия формата : Version 4
Размер файла : 4,70 Гбайт
Продолжительность : 2 ч. 50 м.
Общий поток : 3937 Кбит/сек
Дата кодирования : UTC 2019-12-15 14:48:16 / UTC 2016-03-14T14:55:36Z
Программа кодирования : mkvmerge v9.2.0 ('Photograph') 64bit
Библиотека кодирования : libebml v1.3.3 + libmatroska v1.4.4 / Lavf56.1.0

Видео
Идентификатор : 1
Формат : HEVC
Формат/Информация : High Efficiency Video Coding
Профиль формата : Main 10@L4.1@Main
Идентификатор кодека : V_MPEGH/ISO/HEVC
Продолжительность : 2 ч. 50 м.
Битрейт : 3168 Кбит/сек
Ширина : 1920 пикселей
Высота : 1080 пикселей
Соотношение сторон : 16:9
Режим частоты кадров : Постоянный
Частота кадров : 23,976 (24000/1001) кадра/сек
Цветовое пространство : YUV
Субдискретизация насыщенности : 4:2:0
Битовая глубина : 10 бит
Бит/(Пиксели*Кадры) : 0.064
Размер потока : 3,78 Гбайт (80%)
Библиотека кодирования : x265 1.9+3-63308f7658c3:[Windows][GCC 5.2.0][64 bit] 10bit
Настройки программы : wpp / ctu=64 / min-cu-size=8 / max-tu-size=32 / tu-intra-depth=1 / tu-inter-depth=1 / me=1 / subme=2 / merange=57 / no-rect / no-amp / max-merge=2 / temporal-mvp / no-early-skip / rdpenalty=0 / no-tskip / no-tskip-fast / strong-intra-smoothing / no-lossless / no-cu-lossless / no-constrained-intra / no-fast-intra / open-gop / no-temporal-layers / interlace=0 / keyint=240 / min-keyint=24 / scenecut=40 / rc-lookahead=20 / lookahead-slices=6 / bframes=4 / bframe-bias=0 / b-adapt=2 / ref=3 / limit-refs=3 / no-limit-modes / weightp / no-weightb / aq-mode=3 / qg-size=32 / aq-strength=1.00 / cbqpoffs=0 / crqpoffs=0 / rd=3 / psy-rd=0.30 / rdoq-level=0 / psy-rdoq=0.00 / signhide / deblock / sao / no-sao-non-deblock / b-pyramid / cutree / no-intra-refresh / rc=crf / crf=22.0 / qcomp=0.60 / qpmin=0 / qpmax=51 / qpstep=4 / vbv-maxrate=20000 / vbv-bufsize=20000 / crf-max=0.0 / ipratio=1.40 / pbratio=1.30
Default : Да
Forced : Нет
Цветовой диапазон : Limited
Основные цвета : BT.709
Характеристики трансфера : BT.709
Коэффициенты матрицы : BT.709

Аудио
Идентификатор : 2
Формат : DTS
Формат/Информация : Digital Theater Systems
Идентификатор кодека : A_DTS
Продолжительность : 2 ч. 50 м.
Вид битрейта : Постоянный
Битрейт : 768 Кбит/сек
Каналы : 6 каналов
Channel layout : C L R Ls Rs LFE
Частота : 48,0 КГц
Частота кадров : 93,750 кадра/сек (512 SPF)
Битовая глубина : 24 бит
Метод сжатия : С потерями
Задержка видео : -105 мс.
Размер потока : 937 Мбайт (19%)
Заголовок : Дубляж
Default : Да
Forced : Нет

Меню
00:00:00.000 : :AWOL
00:10:49.523 : :The Brig
00:15:54.286 : :Fear
00:20:19.551 : :Charlie Company
00:25:58.557 : :Arrival
00:29:32.937 : :The March In
00:38:03.030 : :Tall's Order
00:41:25.816 : :Combat Begins
00:51:15.697 : :Keck's Mistake
00:59:58.219 : :Property
01:05:15.995 : :Staro's Refusal
01:11:16.856 : :"The Key To The Ridge"
01:20:15.143 : :"What Is It Worth?"
01:26:40.528 : :Gaff Leads The Charge
01:39:53.279 : :Momentum
01:44:51.493 : :"This Great Evil"
01:55:22.499 : :Change In Command
02:01:02.713 : :What Remains
02:07:31.101 : :Bell
02:14:49.998 : :Witt
02:23:06.369 : :Reconnaissance
02:30:24.348 : :"The Glory"
02:37:24.518 : :"All Things Shine"

pb.wtf



Скачать Тонкая красная линия через торрент https://c.radikal.ru/c07/1912/25/3fc4944606a2.png Скачать фильм Тонкая красная линия через торрент бесплантно в хорошем качестве Описание: Фильм рассказывает о нескольких месяцах жизни армейского подразделения, в том числе об участии этого подразделения в одной из ... 10 10 5
Торрент: Зарегистрирован [2019-12-15 15:06] · скачан: 73 раз
Статус: √ проверено
Размер: 4.7 GB
Как cкачать? Как скачать Тонкая красная линия через торрент | qTorrent

% Раздел Тема Автор DL S | L
Фильмы до 2000 г. [ 2.91 GB ] Тонкая красная линия / Thin Red Line The [1998 военный BDRip] feldeger Скачать
1 | 0
Фильмы до 2000 г. [ 1.46 GB ] Тонкая красная линия / The Thin Red Line [1998 военный BDRip DUB лицензия] Anonymous Скачать
1 | 1
Фильмы [HD 720p, 1080p] (Хороший звук DUB, MVO) [ 10.47 GB ] Тонкая красная линия / The Thin Red Line [1998 военный BDRip 720p + MVO+AVO _denis_100 Скачать
2 | 0
Фильмы (Blu-ray, BD-Remux, HDDVD) [ 48.35 GB ] Тонкая красная линия / The Thin Red Line [1998 военная BDRemux ] MVO + AVO Ворон Скачать
1 | 0
Фильмы до 2000 г. [ 2.18 GB ] Тонкая красная линия / The Thin Red Line [1998 военный BDRip] DUB sokol_ok Скачать
2 | 0
Фильмы до 2000 г. [ 7.47 GB ] Тонкая красная линия / The Thin Red Line [1998 военная HDTV] DimonBudy Скачать
1 | 0


Последний раз редактировалось: ADVOKAT69 (2019-12-22 09:02), всего редактировалось 10 раз(а)

28-11-2019 20:33  

Отключить всю рекламу на сайте

08-08-2018 19:31 Тонкая красная линия Скачать торрент  

    Дорогой пользователь! Огромная просьба, поблагодарите релизера, оцените раздачу и оставьте свои комментарий, если Вы скачали Тонкая красная линия через торрент бесплатно! Внесите свою лепту в развитие PiratBit!
    Комментировать посты могут только пользователи прошедшие не сложную регистрацию
    Показать сообщения:    

    Тонкая красная линия через торрент
    Скачать бесплатно Тонкая красная линия
    Тонкая красная линия скачать торрент
    Тонкая красная линия смотреть онлайн
    Cкачать фильм Тонкая красная линия бесплатно
    Тонкая красная линия скачать торрент в хорошем качестве
    Тонкая красная линия смотреть онлайн бесплатно в хорошем качестве


    Вы не можете начинать темы
    Вы не можете отвечать на сообщения
    Вы не можете редактировать свои сообщения
    Вы не можете удалять свои сообщения
    Вы не можете голосовать в опросах
    Вы не можете прикреплять файлы к сообщениям
    Вы можете скачивать файлы