Ссылка на приватное зеркало нашего сайта всего за 1$. Внимание количество ограничено!!!

2 сезон

iTunes

1 сезон

1

2 сезон

2 сезон

iTunes

1 сезон

RePack

30

Ultimate

ВАЖНО

ИГРА 18+

pack

RePack

MK11
pack

Забери бонус

RePack

jed

!!Акция!!

Alien_Rage

RePack

fifa19

RePack

Assassins Creed: Odyssey

RePack

NEED FOR SPEED™ PAYBACK

4 сезон

9 сезон

Бесстыжие 9 сезон

Все сериалы

все сериалы на PB.wtf

RePack

FAR CRY 5
  

Кардинал / Cardinal / Сезон 2 / Серии 1-6 из 6 (Дэниэл Гру) [2018 г., триллер, драма, криминал, HDTV 720p] [MVO] (FilmsClub) pb.wtf

Кардинал через торрент pb.wtf

Размер: 6.68 GB | Добавлен: 2 года 3 мес. назад | Торрент скачан:31 раз
Скачать  

08-08-2018 12:19 Кардинал Скачать торрент  

Кардинал / Cardinal Информация о фильме

Год выхода: 2018
Жанр: триллер, драма, криминал
Страна: Канада
Студия: JCardinal Productions
Продолжительность: 6 x ~ 00:42:00
Перевод: Любительский (многоголосый, закадровый) [FilmsClub]
Субтитры: нет

Режиссер: Дэниэл Гру

В ролях: Билл Кэмпбелл, Кристен Томсон, Глен Гулд, Дебора Хэй, Алдон Адэйр, Джеймс Доунинг, Эрик Хикс, Джеймс Томас, Карин Ванасс, Элли МакДональд

О фильме:

В заброшенной шахте городка найдено тело тринадцатилетней Кейти Пайн, судя по уликам, погибшей в результате насильственной смерти. За расследование дела берутся полицейские детективы: Джон Кардинал, одолеваемый демонами из далёкого прошлого, и Лиз Делорм, рождённая в местной франкоговорящей общине.



Файл

Кодек: H.264
Качество: HDTV (720p)
Видео: MPEG-4 AVC , 1,78:1 = 16:9, 1280x640| 2860 kbps| 23.976 fps
Аудио 1: AC3 , 5.1 / 48kHz / 448 kbps / 16-bit - MVO
Аудио 2: AC-3 , 5.1 / 48 Khz / 384 kbps / 16-bit - Original
General
Unique ID : 128286511660142218437911980204443968630 (0x6083155B742F9148AE7848ED80062476)
Complete name : E:\Cardinal.S02.720p.films.club\Cardinal.S02E01.720p.HDTV.x264-films.club.mkv
Format : Matroska
Format version : Version 4 / Version 2
File size : 1.12 GiB
Duration : 43 min 21 s
Overall bit rate : 3 684 kb/s
Encoded date : UTC 2018-08-01 07:04:56
Writing application : mkvmerge v24.0.0 ('Beyond The Pale') 64-bit
Writing library : libebml v1.3.6 + libmatroska v1.4.9

Video
ID : 1
Format : AVC
Format/Info : Advanced Video Codec
Format profile : Main@L3.1
Format settings : CABAC / 1 Ref Frames
Format settings, CABAC : Yes
Format settings, RefFrames : 1 frame
Codec ID : V_MPEG4/ISO/AVC
Duration : 43 min 21 s
Bit rate : 2 860 kb/s
Width : 1 280 pixels
Height : 640 pixels
Display aspect ratio : 2.000
Frame rate mode : Constant
Frame rate : 23.976 (24000/1001) FPS
Color space : YUV
Chroma subsampling : 4:2:0
Bit depth : 8 bits
Scan type : Progressive
Bits/(Pixel*Frame) : 0.146
Stream size : 862 MiB (75%)
Writing library : x264 core 129
Encoding settings : cabac=1 / ref=1 / deblock=1:0:0 / analyse=0x1:0x131 / me=dia / subme=2 / psy=1 / psy_rd=1.00:0.00 / mixed_ref=0 / me_range=16 / chroma_me=1 / trellis=0 / 8x8dct=0 / cqm=0 / deadzone=21,11 / fast_pskip=1 / chroma_qp_offset=0 / threads=8 / lookahead_threads=1 / sliced_threads=0 / nr=0 / decimate=1 / interlaced=0 / bluray_compat=0 / constrained_intra=0 / bframes=0 / weightp=2 / keyint=250 / keyint_min=25 / scenecut=40 / intra_refresh=0 / rc_lookahead=40 / rc=abr / mbtree=1 / bitrate=2860 / ratetol=1.0 / qcomp=0.60 / qpmin=10 / qpmax=51 / qpstep=4 / ip_ratio=1.41 / aq=1:1.00
Default : Yes
Forced : No

Audio #1
ID : 2
Format : AC-3
Format/Info : Audio Coding 3
Format settings, Endianness : Big
Codec ID : A_AC3
Duration : 43 min 21 s
Bit rate mode : Constant
Bit rate : 448 kb/s
Channel(s) : 6 channels
Channel positions : Front: L C R, Side: L R, LFE
Sampling rate : 48.0 kHz
Frame rate : 31.250 FPS (1536 SPF)
Bit depth : 16 bits
Compression mode : Lossy
Stream size : 139 MiB (12%)
Title : films.club
Language : Russian
Service kind : Complete Main
Default : Yes
Forced : No

Audio #2
ID : 3
Format : AC-3
Format/Info : Audio Coding 3
Format settings, Endianness : Big
Codec ID : A_AC3
Duration : 43 min 21 s
Bit rate mode : Constant
Bit rate : 384 kb/s
Channel(s) : 6 channels
Channel positions : Front: L C R, Side: L R, LFE
Sampling rate : 48.0 kHz
Frame rate : 31.250 FPS (1536 SPF)
Bit depth : 16 bits
Compression mode : Lossy
Stream size : 119 MiB (10%)
Language : English
Service kind : Complete Main
Default : No
Forced : No
скриншот  скриншот  скриншот  
pb.wtf



Скачать Кардинал через торрент http://i105.fastpic.ru/big/2018/0628/f1/2abcb34ff83efdcb44435424d084bdf1.jpg Скачать фильм Кардинал через торрент бесплантно в хорошем качестве О фильме:В заброшенной шахте городка найдено тело тринадцатилетней Кейти Пайн, судя по уликам, погибшей в результате насильственной смерти. ... 8 10 4
Торрент: Зарегистрирован [2018-08-08 12:19] · скачан: 31 раз
Статус: √ проверено
Размер: 6.68 GB
Как cкачать? Как скачать Кардинал через торрент | qTorrent

28-11-2019 20:33  

Отключить всю рекламу на сайте

08-08-2018 19:59 Кардинал Скачать торрент  

озвучка проф но на пирате почему то указывают как любительскую
pb.wtf



    Дорогой пользователь! Огромная просьба, поблагодарите релизера, оцените раздачу и оставьте свои комментарий, если Вы скачали Кардинал через торрент бесплатно! Внесите свою лепту в развитие PiratBit!
    Комментировать посты могут только пользователи прошедшие не сложную регистрацию
    Показать сообщения:    

    Кардинал через торрент
    Скачать бесплатно Кардинал
    Кардинал скачать торрент
    Кардинал смотреть онлайн
    Cкачать фильм Кардинал бесплатно
    Кардинал скачать торрент в хорошем качестве
    Кардинал смотреть онлайн бесплатно в хорошем качестве


    Вы не можете начинать темы
    Вы не можете отвечать на сообщения
    Вы не можете редактировать свои сообщения
    Вы не можете удалять свои сообщения
    Вы не можете голосовать в опросах
    Вы не можете прикреплять файлы к сообщениям
    Вы можете скачивать файлы